@nslhnelly; | The.15.17.to.Paris.2018. English 720p.BluRay.H264.AAC-1GBMovcr | Teen Wolf - Season 1

Скачать через торрент [SERIAL] Записки юного врача A Young Doctors Notebook бесплатно русская версия torrent активатор

Статистика раздачи
Размер:  377 MB   |    Зарегистрирован:  5 лет 6 месяцев   |    .torrent скачан:  26 раз   |   
Раздают:  1  
   
загрузка...
 
Автор Сообщение

L


Записки юного врача / A Young Doctor's Notebook

Год выпуска: 2012

Страна: Великобритания
Жанр: Комедия
Продолжительность: 00:22:00
Перевод: Профессиональный (многоголосый, закадровый, LostFilm)
Русские субтитры: нет
Режиссер: Alex Hardcastle
В ролях: Jon Hamm, Daniel Radcliffe, Adam Godley и другие
Описание: 4-серийная комедия, основанная на рассказах Михаила Афанасьевича Булгакова. Хэмм выступит в роли прошедшего первую мировую врача, который изо всех сил пытается скрыть свою неуверенность в себе и отсутствие доверия к людям. Страдающий от тяжелейшей наркотической зависимости доктор частенько заводит разговор с самим собой, только значительно более молодым. Роль двойника досталась Рэдклиффу.
Качество: HDTVRip
Формат: MP4
Видео кодек: H.264
Аудио кодек: AAC
Видео: MPEG4 Video (H264); 480x272 (16:9); 449 kbps; 24.00fps
Аудио: AAC 44100Hz stereo 126 kbps
ОбщееПолное имя : ...\A Young Doctors Notebook [season 1, 480x272, mp4]\A.Young.Doctors.Notebook.S01E01.mp4Формат : MPEG-4Профиль формата : Base Media / Version 2Идентификатор кодека : mp42Размер файла : 95,4 МбайтПродолжительность : 23 м.Режим общего битрейта : ПеременныйОбщий поток : 574 Кбит/секДата кодирования : UTC 2013-01-03 04:33:24Дата пометки : UTC 2013-01-03 04:33:25Программа кодирования : mp4creator 1.4.4

ВидеоИдентификатор : 1Формат : AVCФормат/Информация : Advanced Video CodecПрофиль формата : <a href="mailto:[email protected]Параметр" class="postLink">[email protected]Параметр</a> CABAC формата : НетПараметр ReFrames формата : 2 кадраИдентификатор кодека : avc1Идентификатор кодека/Информация : Advanced Video CodingПродолжительность : 23 м.Вид битрейта : ПеременныйБитрейт : 446 Кбит/секШирина : 480 пикселейВысота : 272 пикселяСоотношение сторон : 16:9Режим частоты кадров : ПостоянныйЧастота кадров : 24,000 кадра/секЦветовое пространство : YUVСубдискретизация насыщенности : 4:2:0Битовая глубина : 8 битТип развёртки : ПрогрессивнаяБит/(Пиксели*Кадры) : 0.142Размер потока : 74,2 Мбайт (78%)Язык : EnglishДата кодирования : UTC 2013-01-03 04:33:24Дата пометки : UTC 2013-01-03 04:33:24

АудиоИдентификатор : 2Формат : AACФормат/Информация : Advanced Audio CodecПрофиль формата : LCИдентификатор кодека : 40Продолжительность : 23 м.Продолжительность оригинала : 23 м.Вид битрейта : ПеременныйБитрейт : 126 Кбит/секМаксимальный битрейт : 169 Кбит/секКаналы : 2 каналаРасположение каналов : Front: L RЧастота : 44,1 КГцМетод сжатия : С потерямиРазмер потока : 20,9 Мбайт (22%)Размер потока оригинала : 20,9 Мбайт (22%)Язык : EnglishДата кодирования : UTC 2013-01-03 04:33:24Дата пометки : UTC 2013-01-03 04:33:25


Трекер:  [ 04-Янв-2013 18:53 ]

  

Скачать .torrent

Размер .torrent файла 15 KB


Размер: 377 MB
Хэш (hash) релиза: 1be93c0c02c5f2c9b853e6fca65070829d50317b

Еще никто не оставлял запись к записи скачать торрент [SERIAL] Записки юного врача A Young Doctors Notebook . Будь первым!

!Обратная связь