Bokura wa Minna Kawaisou | Doc Martin UK | Podejrzany / Secrets and Lies

Скачать через торрент [VIDEO] Одинокий волк МакКуэйд Lone Wolf McQuade бесплатно русская версия torrent активатор

Статистика раздачи
Размер:  928 MB   |    Зарегистрирован:  5 лет 6 месяцев   |    .torrent скачан:  27 раз   |   
Раздают:  1  
   
загрузка...
 
Автор Сообщение

Galfimbul

avatar Galfimbul


Одинокий волк МакКуэйд / Lone Wolf McQuade

Год выпуска: 1983

Страна: США
Жанр: боевик, триллер, драма, криминал
Продолжительность: 01:47:11
Перевод: Профессиональный (многоголосый, закадровый) - НТВ+
Русские субтитры: нет

Режиссер: Стив Карвер / Steve Carver

В ролях: Чак Норрис, Дэвид Кэрредин, Барбара Каррера, Леон Айзек Кеннеди, Роберт Белтран, Л. К. Джонс, Дэна Киммелл, Р.Г. Армстронг, Хорхе Сервера мл., Шэрон Фаррелл

Описание: «Крутого» рейнджера Маккуэйда бандиты ненавидят за беспощадность, а шеф полиции за его стиль работы - «волка-одиночки». И, в конце концов, навязывает ему нового напарника - молодого мексиканца. Им противостоит банда контрабандистов оружием во главе неким Роули - чемпионом по карате. В довершение всего, Маккуэйд влюбляется в женщину Роули Лолу. Бандиты похищают дочь рейнджера...
Качество: BDRip
Формат: MP4
Видео кодек: XviD
Аудио кодек: AAC
Видео: XviD, 640x344, 1.85:1, 1 080 Kbps, 23.976 fps
Аудио: AAC, 128 Kbps, 48.0 KHz, 2 ch.
GeneralComplete name : D:\!РИПЫ\Новая папка\Lone Wolf McQuade (1983).mp4Format : MPEG-4Format profile : Base Media / Version 2Codec ID : mp42File size : 928 MiBDuration : 1h 47mnOverall bit rate mode : VariableOverall bit rate : 1 210 KbpsEncoded date : UTC 2012-12-19 01:18:27Tagged date : UTC 2012-12-19 01:18:27

VideoID : 201Format : MPEG-4 VisualFormat profile : Advanced [email protected] settings, BVOP : NoFormat settings, QPel : NoFormat settings, GMC : No warppointsFormat settings, Matrix : Default (H.263)Codec ID : 20Duration : 1h 47mnBit rate mode : VariableBit rate : 1 080 KbpsMaximum bit rate : 4 820 KbpsWidth : 640 pixelsHeight : 344 pixelsDisplay aspect ratio : 1.85:1Frame rate mode : VariableFrame rate : 23.961 fpsOriginal frame rate : 23.976 fpsMinimum frame rate : 0.648 fpsMaximum frame rate : 23.976 fpsColor space : YUVChroma subsampling : 4:2:0Bit depth : 8 bitsScan type : ProgressiveCompression mode : LossyBits/(Pixel*Frame) : 0.205Stream size : 828 MiB (89%)Writing library : XviD 1.2.1 (UTC 2008-12-04)Encoded date : UTC 2012-12-19 01:18:27Tagged date : UTC 2012-12-19 01:19:32

AudioID : 101Format : AACFormat/Info : Advanced Audio CodecFormat profile : LCCodec ID : 40Duration : 1h 47mnBit rate mode : VariableBit rate : 128 KbpsMaximum bit rate : 164 KbpsChannel(s) : 2 channelsChannel positions : Front: L RSampling rate : 48.0 KHzCompression mode : LossyStream size : 98.1 MiB (11%)Encoded date : UTC 2012-12-19 01:19:29Tagged date : UTC 2012-12-19 01:19:32



Трекер:  [ 24-Дек-2012 12:30 ]

  

Скачать .torrent

Размер .torrent файла 18 KB


Размер: 928 MB
Хэш (hash) релиза: 593e3360819f3e901fc28a8173dc8e7c1e206e1f

Еще никто не оставлял запись к записи скачать торрент [VIDEO] Одинокий волк МакКуэйд Lone Wolf McQuade . Будь первым!

!Обратная связь