Classificação | My 600-lb Life | The Man Who Cant Get Married

Скачать через торрент [VIDEO] Цельнометаллическая оболочка Full Metal Jacket бесплатно русская версия torrent активатор

Статистика раздачи
Размер:  1005 MB   |    Зарегистрирован:  5 лет 6 месяцев   |    .torrent скачан:  61 раз   |   
Раздают:  1  
   
загрузка...
 
Автор Сообщение

Galfimbul

avatar Galfimbul


Цельнометаллическая оболочка / Full Metal Jacket

Год выпуска: 1987

Страна: США
Жанр: драма, военный
Продолжительность: 01:56:30
Перевод: Авторский (одноголосый) - Дмитрий Пучков [aka Goblin]
Русские субтитры: нет

Режиссер: Стэнли Кубрик / Stanley Kubrick

В ролях: Мэтью Модайн, Адам Болдуин, Винсент Д`Онофрио, Р. Ли Эрми, Дориан Хэрвуд, Кевин Мейджор Ховард, Арлисс Ховард, Эд О`Росс, Джон Терри, Кирон Джеккинис

Описание: Американская база подготовки новобранцев корпуса морской пехоты. Жесточайшая, бесчеловечная система призвана превратить домашних мальчишек в натренированных хладнокровных убийц. Их готовят к войне во Вьетнаме, где им придется часто задавать себе вопрос «Разве война — это не ад?», а иначе просто невозможно убивать каждый день, не понимая, для чего это?
Качество: BDRip
Формат: MP4
Видео кодек: XviD
Аудио кодек: AAC
Видео: XviD, 640x360, 16:9, 1 080 Kbps, 23.976 fps
Аудио: AAC, 128 Kbps, 48.0 KHz, 2 ch.
GeneralComplete name : D:\!РИПЫ\Новая папка\Full Metal Jacket (1987).mp4Format : MPEG-4Format profile : Base Media / Version 2Codec ID : mp42File size : 1 005 MiBDuration : 1h 56mnOverall bit rate mode : VariableOverall bit rate : 1 207 KbpsEncoded date : UTC 2012-12-17 23:39:05Tagged date : UTC 2012-12-17 23:39:05

VideoID : 201Format : MPEG-4 VisualFormat profile : Advanced [email protected] settings, BVOP : NoFormat settings, QPel : NoFormat settings, GMC : No warppointsFormat settings, Matrix : Default (H.263)Codec ID : 20Duration : 1h 56mnBit rate mode : VariableBit rate : 1 080 KbpsMaximum bit rate : 3 129 KbpsWidth : 640 pixelsHeight : 360 pixelsDisplay aspect ratio : 16:9Frame rate mode : VariableFrame rate : 23.854 fpsOriginal frame rate : 23.976 fpsMinimum frame rate : 0.145 fpsMaximum frame rate : 23.976 fpsColor space : YUVChroma subsampling : 4:2:0Bit depth : 8 bitsScan type : ProgressiveCompression mode : LossyBits/(Pixel*Frame) : 0.196Stream size : 900 MiB (89%)Writing library : XviD 1.2.1 (UTC 2008-12-04)Encoded date : UTC 2012-12-17 23:39:05Tagged date : UTC 2012-12-17 23:40:17

AudioID : 101Format : AACFormat/Info : Advanced Audio CodecFormat profile : LCCodec ID : 40Duration : 1h 53mnBit rate mode : VariableBit rate : 128 KbpsMaximum bit rate : 148 KbpsChannel(s) : 2 channelsChannel positions : Front: L RSampling rate : 48.0 KHzCompression mode : LossyStream size : 103 MiB (10%)Encoded date : UTC 2012-12-17 23:40:14Tagged date : UTC 2012-12-17 23:40:17



Трекер:  [ 24-Дек-2012 12:29 ]

  

Скачать .torrent

Размер .torrent файла 20 KB


Размер: 1005 MB
Хэш (hash) релиза: 69c016d94e938f1502dc62c163c66b483c873051

Еще никто не оставлял запись к записи скачать торрент [VIDEO] Цельнометаллическая оболочка Full Metal Jacket . Будь первым!

!Обратная связь