In Death #37.5 - Taken in Death | Очень странные дела / Stranger Things [S01-02] (2016-2017) WEBRip | NewStudio | Télécharger Part 9

Скачать через торрент [VIDEO] Судья Дредд Judge Dredd бесплатно русская версия torrent активатор

Статистика раздачи
Размер:  832 MB   |    Зарегистрирован:  5 лет 6 месяцев   |    .torrent скачан:  34 раза   |   
Раздают:  1  
   
загрузка...
 
Автор Сообщение

Galfimbul

avatar Galfimbul


Судья Дредд / Judge Dredd

Год выпуска: 1995

Страна: США
Жанр: Фантастика, боевик
Продолжительность: 01:36:07
Перевод: Профессиональный (многоголосый, закадровый) - Екатеринбург Арт Home Video
Русские субтитры: нет

Режиссер: Дэнни Кэннон / Danny Cannon

В ролях: Сильвестр Сталлоне (Judge Joseph Dredd,), Арманд Ассанте (Rico), Роб Шнайдер (Herman Ferguson), Юрген Прохнов (Judge Griffin), Макс фон Сюдов (Chief Justice Fargo), Дайан Лэйн (Judge Hershey), Джоэнна Майлз (Judge Evelyn McGruder), Джоан Чэнь (Ilsa), Бальтазар Гетти (Olmeyer), Морис Роевз (Warden Miller), Йен Дюри (Geiger), Кристофер Адамсон (Mean Machine)

Описание: В третьем тысячелетии мир переменился. Климат, народы - все перевернулось… Земля превратилась в ядовитую, выжженную пустыню, которую стали называть «Проклятая земля». Миллионы людей сосредоточились в нескольких огромных городах, на улицах которых царили хаос и преступники. Система правосудия не смогла справиться с анархией, и был создан новый порядок - элитные подразделения, которые сами задерживали, судили, выносили приговор и приводили его в исполнение. Их называли Судьями.
Качество: BDRip
Формат: MP4
Видео кодек: XviD
Аудио кодек: AAC
Видео: XviD, 640x272, 2.35:1, 1 080 Kbps, 23.976 fps
Аудио: AAC, 128 Kbps, 48.0 KHz, 2 ch.
GeneralComplete name : D:\!РИПЫ\Новая папка\Judge Dredd (1995).mp4Format : MPEG-4Format profile : Base Media / Version 2Codec ID : mp42File size : 832 MiBDuration : 1h 36mnOverall bit rate mode : VariableOverall bit rate : 1 210 KbpsEncoded date : UTC 2012-12-19 22:26:37Tagged date : UTC 2012-12-19 22:26:37

VideoID : 201Format : MPEG-4 VisualFormat profile : Advanced [email protected] settings, BVOP : NoFormat settings, QPel : NoFormat settings, GMC : No warppointsFormat settings, Matrix : Default (H.263)Codec ID : 20Duration : 1h 36mnBit rate mode : VariableBit rate : 1 080 KbpsMaximum bit rate : 11.6 MbpsWidth : 640 pixelsHeight : 272 pixelsDisplay aspect ratio : 2.35:1Frame rate mode : VariableFrame rate : 23.919 fpsOriginal frame rate : 23.976 fpsMinimum frame rate : 0.272 fpsMaximum frame rate : 23.976 fpsColor space : YUVChroma subsampling : 4:2:0Bit depth : 8 bitsScan type : ProgressiveCompression mode : LossyBits/(Pixel*Frame) : 0.259Stream size : 742 MiB (89%)Writing library : XviD 1.2.1 (UTC 2008-12-04)Encoded date : UTC 2012-12-19 22:26:37Tagged date : UTC 2012-12-19 22:27:07

AudioID : 101Format : AACFormat/Info : Advanced Audio CodecFormat profile : LCCodec ID : 40Duration : 1h 36mnBit rate mode : VariableBit rate : 128 KbpsMaximum bit rate : 154 KbpsChannel(s) : 2 channelsChannel positions : Front: L RSampling rate : 48.0 KHzCompression mode : LossyStream size : 87.9 MiB (11%)Encoded date : UTC 2012-12-19 22:27:06Tagged date : UTC 2012-12-19 22:27:07



Трекер:  [ 24-Дек-2012 12:29 ]

  

Скачать .torrent

Размер .torrent файла 17 KB


Размер: 832 MB
Хэш (hash) релиза: c4f9764e3599728532e03196be639d05ddacf4a7

Еще никто не оставлял запись к записи скачать торрент [VIDEO] Судья Дредд Judge Dredd . Будь первым!

!Обратная связь