Marcella Simon Temukan Banyak Pesan Moral di Sinetron Seleb | La prueba del crimen | ANDROID RPG

Скачать через торрент [MULT] Совершенный Человек-Паук Ultimate Spider-Man бесплатно русская версия torrent активатор

Статистика раздачи
Размер:  2.28 GB   |    Зарегистрирован:  5 лет 6 месяцев   |    .torrent скачан:  115 раз   |   
Раздают:  1  
   
загрузка...
 
Автор Сообщение

Galfimbul

avatar Galfimbul


Совершенный Человек-Паук / Ultimate Spider-Man

Год выпуска: 2012

Страна: США
Жанр: Мультсериал, приключения, фэнтези
Продолжительность: 00:22:00
Перевод: Любительский (двухголосый) (Драма (1), Бобби Джек и ZM (2-26))
Русские субтитры: нет
Режиссер: Тим Элдред, Алекс Сото / Tim Eldred, Alex Soto
В ролях: Дрейк Белл, Стивен Уэбер, Дж.К. Симмонс, Чи МакБрайд, Кейтлин Тейлор Лав, Грег Сайпс, Логан Миллер, Том Кенни, Тара Стронг
Описание: «Современный Человек-Паук» - новая интерпретация приключений знаменитого супергероя Человека-паука из комиксов MARVEL, премьера которого состоялась 1 апреля 2012 года. В один прекрасный день Ник Фьюри приходит к пауку и предлагает ему обучаться по его технике. Согласился ли он? Сами посмотрите!
Качество: WEB-DLRip
Формат: MP4
Видео кодек: H.264
Аудио кодек: AAC
Видео: MPEG4 Video (H264); 480x272 (16:9); 449 kbps; 24.00fps
Аудио: AAC 44100Hz stereo 126 kbps
ОбщееПолное имя : ...\Ultimate Spider-Man [season 1, 480x272, mp4]\Ultimate.Spider-Man.S01E01.mp4Формат : MPEG-4Профиль формата : Base Media / Version 2Идентификатор кодека : mp42Размер файла : 90,1 МбайтПродолжительность : 22 м.Режим общего битрейта : ПеременныйОбщий поток : 569 Кбит/секДата кодирования : UTC 2012-12-18 00:08:15Дата пометки : UTC 2012-12-18 00:08:16Программа кодирования : mp4creator 1.4.4

ВидеоИдентификатор : 1Формат : AVCФормат/Информация : Advanced Video CodecПрофиль формата : <a href="mailto:[email protected]Параметр" class="postLink">[email protected]Параметр</a> CABAC формата : НетПараметр ReFrames формата : 2 кадраИдентификатор кодека : avc1Идентификатор кодека/Информация : Advanced Video CodingПродолжительность : 22 м.Вид битрейта : ПеременныйБитрейт : 441 Кбит/секШирина : 480 пикселейВысота : 272 пикселяСоотношение сторон : 16:9Режим частоты кадров : ПостоянныйЧастота кадров : 24,000 кадра/секЦветовое пространство : YUVСубдискретизация насыщенности : 4:2:0Битовая глубина : 8 битТип развёртки : ПрогрессивнаяБит/(Пиксели*Кадры) : 0.141Размер потока : 69,8 Мбайт (78%)Язык : EnglishДата кодирования : UTC 2012-12-18 00:08:15Дата пометки : UTC 2012-12-18 00:08:16

АудиоИдентификатор : 2Формат : AACФормат/Информация : Advanced Audio CodecПрофиль формата : LCИдентификатор кодека : 40Продолжительность : 22 м.Продолжительность оригинала : 22 м.Вид битрейта : ПеременныйБитрейт : 126 Кбит/секМаксимальный битрейт : 244 Кбит/секКаналы : 2 каналаРасположение каналов : Front: L RЧастота : 44,1 КГцМетод сжатия : С потерямиРазмер потока : 19,9 Мбайт (22%)Размер потока оригинала : 19,9 Мбайт (22%)Язык : EnglishДата кодирования : UTC 2012-12-18 00:08:16Дата пометки : UTC 2012-12-18 00:08:16
√ 01. Great Power
√ 02. Great Responsibility
√ 03. Doomed
√ 04. Venom
√ 05. Flight of the Iron Spider
√ 06. Why I Hates the Gym
√ 07. Exclusive
√ 08. Back in Black
√ 09. Field Trip
√ 10. Freaky
√ 11. Venom Attack
√ 12. Me Time
√ 13. Strange Days
√ 14. Awesome
√ 15. For Your Eye Only
√ 16. Beetle Mania
√ 17. Snow Day
√ 18. Out of Damage Control
√ 19. Home Sick
√ 20. Run Pig Run
√ 21. I Am Spider-Man
√ 22. The Iron Octopus
√ 23. Not a Toy
√ 24. Attack of the Beetle
√ 25 Revealed
√ 26. The Rise of the Goblin


Трекер:  [ 24-Дек-2012 12:43 ]

  

Скачать .torrent

Размер .torrent файла 13 KB


Размер: 2.28 GB
Хэш (hash) релиза: 3ec192867e251b4a8d38be050c830a21c8df8352

Еще никто не оставлял запись к записи скачать торрент [MULT] Совершенный Человек-Паук Ultimate Spider-Man . Будь первым!

!Обратная связь