Good Girls | Guardianes de Oz | Eps29 Vice - Season 5 (2017)

Скачать через торрент [SERIAL] Закрытая школа бесплатно русская версия torrent активатор

Статистика раздачи
Размер:  8.68 GB   |    Зарегистрирован:  5 лет 6 месяцев   |    .torrent скачан:  44 раза   |   
Раздают:  1  
   
загрузка...
 
Автор Сообщение

Galfimbul

avatar Galfimbul


Закрытая школа (полный 2 сезон)

Год выпуска: 2011
Страна: Россия
Жанр: Мистика, триллер, драма
Продолжительность: ~ 00:47:00
Перевод: Не требуется
Русские субтитры: нет
Режиссер: Олег Асадулин, Константин Статский, Андрей Записов
В ролях: Антон Хабаров, Татьяна Васильева, Михаил Сафронов (II), Юлия Агафонова, Ксения Энтелис, Виталий Емашов, Иван Гордиенко, Марина Казанкова, Алексей Коряков, Павел Прилучный, Агата Муцениеце, Татьяна Космачева, Игорь Юртаев, Андрей Негинский, Евгения Осипова, Алина Васильева, Луиза-Габриэла Бровина, Ирина Крутик, Александр Яцко, Дэвид Аласания, Александр Рапопорт, Михаил Ремизов, Владимир Носик, Иван Непомнящий, Сергей Походаев, Поля Полякова, Константин Стрельников и др.
Описание: «Закрытая школа» — это мистический триллер, главными героями которого стали ученики элитной школы-интерната. В лесу, вдали от городской суеты, стоит старинная усадьба, в которой живут и учатся самые разные дети: и отпрыски богатых родителей, и талантливые ребята из бедных семей. Они совершенно разные, но у них есть общая черта — они брошены, одиноки и очень ранимы. Как и любые другие дети, по вечерам они рассказывают друг другу страшные истории. О том, что лес, глухой стеной окружающий их школу, хранит в себе страшное зло. Говорят, в нем водятся странные существа и без вести пропадают люди. Дети смеются и подшучивают над этими слухами, не догадываясь, что большинство из этих страшилок — правда. Лишь когда бесследно исчезает один из преподавателей, ученики начинают собственное расследование… Здесь нет второстепенных персонажей. Здесь нет неважных событий. У каждого есть своя тайна и свой личный скелет в шкафу. Герои балансируют между любовью и ненавистью, дружбой и соперничеством, добром и злом. Не подозревая, что настоящая опасность подстерегает их не в стенах школы, а в глубине леса, где балансировать придется между жизнью и смертью…
Качество: IPTVRip
Формат: AVI
Видео кодек: XviD
Аудио кодек: MP3
Видео: XVID 640x360 25.00fps 580Kbps
Аудио: MPEG Audio Layer 3 48000Hz stereo 128Kbps
ОбщееПолное имя : F:\Закрытая школа 2 сезон (х640)\Zakrytaya.shkola.s02.e30.aviФормат : AVIФормат/Информация : Audio Video InterleaveРазмер файла : 214 МбайтПродолжительность : 43 м.Режим общего битрейта : ПеременныйОбщий поток : 688 Кбит/секПрограмма кодирования : VirtualDubMod 1.5.10.3 | www.virtualdub-fr.org || (build 2550/release)Библиотека кодирования : VirtualDubMod build 2550/release

ВидеоИдентификатор : 0Формат : MPEG-4 VisualПрофиль формата : Advanced [email protected]Параметр BVOP формата : 2Параметр QPel формата : НетПараметр GMC формата : Без точки переходаПараметр матрицы формата : Default (H.263)Идентификатор кодека : XVIDИдентификатор кодека/Подсказка : XviDПродолжительность : 43 м.Битрейт : 579 Кбит/секШирина : 640 пикселейВысота : 360 пикселейСоотношение сторон : 16:9Частота кадров : 25,000 кадров/секЦветовое пространство : YUVСубдискретизация насыщенности : 4:2:0Битовая глубина : 8 битТип развёртки : ПрогрессивнаяМетод сжатия : С потерямиБит/(Пиксели*Кадры) : 0.100Размер потока : 180 Мбайт (84%)Библиотека кодирования : XviD 1.2.1 (UTC 2008-12-04)

АудиоИдентификатор : 1Формат : MPEG AudioВерсия формата : Version 1Профиль формата : Layer 3Режим : Joint stereoРасширение режима : MS StereoИдентификатор кодека : 55Идентификатор кодека/Подсказка : MP3Продолжительность : 43 м.Вид битрейта : ПеременныйБитрейт : 96,5 Кбит/секНоминальный битрейт : 128 Кбит/секКаналы : 2 каналаЧастота : 48,0 КГцМетод сжатия : С потерямиРазмер потока : 30,1 Мбайт (14%)Выравнивание : Соединение по промежуткамПродолжительность промежутка : 24 мс. (0,60 видеокадр)Время предзагрузки промежутка : 465 мс.Библиотека кодирования : LAME3.98rНастройки программы : -m j -V 4 -q 2 -lowpass 17 --abr 128


Трекер:  [ 24-Дек-2012 12:37 ]

  

Скачать .torrent

Размер .torrent файла 25 KB


Размер: 8.68 GB
Хэш (hash) релиза: 67a27be724893210ab45748dc84952f0eeb935db

Еще никто не оставлял запись к записи скачать торрент [SERIAL] Закрытая школа . Будь первым!

!Обратная связь