VA - Fun Summer Dance 2018 [3CD] (2018) MP3 | DAZ3D - Underground Factory | Spooks: I Am Grimalkin

Скачать через торрент [SERIAL] Обратная сторона Луны Серии: 1-16 из 16 бесплатно русская версия torrent активатор

Статистика раздачи
Размер:  2.73 GB   |    Зарегистрирован:  5 лет 6 месяцев   |    .torrent скачан:  73 раза   |   
Раздают:  1  
   
загрузка...
 
Автор Сообщение

Galfimbul

avatar Galfimbul


Обратная сторона Луны
Год выпуска: 2012

Страна: Россия
Жанр: Фантастика, триллер, драма, криминал, детектив
Продолжительность: 16 х ~ 00:51:00

Режисер: Александр Котт

В ролях: Павел Деревянко, Светлана Смирнова-Марцинкевич, Иван Шибанов, Карина Разумовская, Евгений Богомолов, Олег Алмазов, Дмитрий Гусев, Александр Ляпин, Татьяна Чердынцева, Сергей Беляев, Сергей Галахов, Ирина Марцинкевич, Ирина Нарбекова, Анна Цуканова, Сергей Карякин, Андрей Назимов, Игорь Ясулович, Борис Эстрин, Иван Агапов, Анатолий Конопицкий, Александр Яценко, Борис Войцеховский, Максим Костромыкин, Сахат Дурсунов, Татьяна Масс, Рафаэль Мукаев, Любовь Тихомирова, Алексей Колубков, Павел Татаренко, Григорий Татаренко, Денис Курочка, Дарья Цыпляева, Владимир Лаптев, Марина Зубанова, Николай Сальников, Сергей Бадичкин, Михаил Есьман, Яна Романченко, Земфира Вербицкая, Анжела Лекарева, Семен Трескунов, Роман Чора, Александр Калтахчян, Алексей Гурьев, Марина Дмитрусенко, Екатерина Чебышева, Алиса Авчинник, Александр Пьянзин, Юлия Кадушкевич, Анастасия Боброва, Иван Щетко, Александр Полищук, Геннадий Фомин, Денис Моисейчик, Лариса Горцева, Иван Мацкевич, Василий Козлов, Олег Коц, Анастасия Васильева, Василий Ницко, Сергей Колтаков, Владимир Янковский, Андрюс Паулавичюс, Римас Моркунас, Виктор Цекало, Прадьюмна Чаттерджи, Михаил Шпилевский, Алексей Сенчило, Александр Сирин, Андрей Гусев, Олег Иванов

Описание: Третий год старший лейтенант полиции Михаил Соловьев идет по следу Маньяка, терроризирующего столицу убийствами молодых женщин. Во время операции задержания Маньяк сбивает Соловьева автомобилем.
Придя в себя после аварии, Михаил обнаруживает, что переместился во времени и оказался в 1979 году. Не понимая до конца, что с ним произошло, он, тем не менее, старается адаптироваться к новым обстоятельствам, работая советским милиционером. А попутно пытается выяснить, в чем причина случившейся с ним метаморфозы.

Качество: SATRip
Формат: MPEG-4
Видео кодек: H.264
Аудио кодек: AAC
Видео: AVC, 320x176 (16/9), 25.000 fps, 360 Kbps (0.256 bit/pixel)
Аудио1: AAC LC, 44.1 KHz, 2 ch, 96.0 Kbps, CBR (Russian)
В сериале мелькают известные личности — Владимир Высоцкий, Михаил Ходорковский, Филипп Киркоров, Фёдор Бондарчук, Михаил Горбачёв, Юрий Лужков.
Главный герой, работник милиции, в 1979 году ездит на автомобиле «Москвич» с госномером «79-00 мнт».
Газета «Вечерняя Москва» нашла в телесериале несколько анахронизмов.[2]
В пятой серии утром за завтраком Михаил с Катей смотрят по телевизору программу "Международная панорама", которую показывали вечером.
Обра́тная сторона́ Луны́ — российский фантастический, детективный телесериал, адаптация британского сериала «Жизнь на Марсе» производства BBC.
GeneralComplete name : \Obratnaja.storona.Luny.2012.mobil\Obratnaja.storona.Luny.01.mp4Format : MPEG-4Format profile : Base MediaCodec ID : isomFile size : 247 MiBDuration : 1h 15mnOverall bit rate : 458 KbpsEncoded date : UTC 2012-12-08 14:58:26Tagged date : UTC 2012-12-08 14:58:26Writing application : Lavf54.41.100Copyright : aleksd72

VideoID : 1Format : AVCFormat/Info : Advanced Video CodecFormat profile : <a href="mailto:[email protected]" class="postLink">[email protected]</a> settings, CABAC : NoFormat settings, ReFrames : 1 frameCodec ID : avc1Codec ID/Info : Advanced Video CodingDuration : 1h 15mnBit rate : 360 KbpsWidth : 320 pixelsHeight : 176 pixelsDisplay aspect ratio : 16:9Frame rate mode : ConstantFrame rate : 25.000 fpsColor space : YUVChroma subsampling : 4:2:0Bit depth : 8 bitsScan type : ProgressiveBits/(Pixel*Frame) : 0.256Stream size : 192 MiB (78%)Writing library : x264 core 129 r2230Encoding settings : cabac=0 / ref=1 / deblock=1:0:0 / analyse=0x1:0x111 / me=hex / subme=5 / psy=1 / psy_rd=1.00:0.00 / mixed_ref=0 / me_range=16 / chroma_me=1 / trellis=1 / 8x8dct=0 / cqm=0 / deadzone=21,11 / fast_pskip=1 / chroma_qp_offset=0 / threads=3 / lookahead_threads=1 / sliced_threads=0 / nr=0 / decimate=1 / interlaced=0 / bluray_compat=0 / constrained_intra=0 / bframes=0 / weightp=0 / keyint=250 / keyint_min=25 / scenecut=40 / intra_refresh=0 / rc_lookahead=40 / rc=abr / mbtree=1 / bitrate=360 / ratetol=1.0 / qcomp=0.60 / qpmin=3 / qpmax=69 / qpstep=4 / vbv_maxrate=1500 / vbv_bufsize=1500 / nal_hrd=none / ip_ratio=1.40 / aq=1:1.00Language : EnglishEncoded date : UTC 2012-12-08 14:58:26Tagged date : UTC 2012-12-08 14:58:26

AudioID : 2Format : AACFormat/Info : Advanced Audio CodecFormat profile : LCCodec ID : 40Duration : 1h 15mnDuration_LastFrame : -20msBit rate mode : ConstantBit rate : 96.0 KbpsChannel(s) : 2 channelsChannel positions : Front: L RSampling rate : 44.1 KHzCompression mode : LossyStream size : 51.7 MiB (21%)Language : RussianEncoded date : UTC 2012-12-08 14:58:26Tagged date : UTC 2012-12-08 14:58:26


Трекер:  [ 24-Дек-2012 12:36 ]

  

Скачать .torrent

Размер .torrent файла 15 KB


Размер: 2.73 GB
Хэш (hash) релиза: d6900c210800a579d3e03268fc69e6e4662491dc

Еще никто не оставлял запись к записи скачать торрент [SERIAL] Обратная сторона Луны Серии: 1-16 из 16 . Будь первым!

!Обратная связь