star wars Episode 1 movies hd hinde dubbed 9xmovies | Horror and Hamsters streamango | Borg vs. McEnroe (2017)

Скачать через торрент [VIDEO] Запах женщины Scent of woman бесплатно русская версия torrent активатор

Статистика раздачи
Размер:  1.32 GB   |    Зарегистрирован:  5 лет 6 месяцев   |    .torrent скачан:  41 раз   |   
Раздают:  1  
   
загрузка...
 
Автор Сообщение

Galfimbul

avatar Galfimbul


Запах женщины / Scent of woman

Год выпуска: 1992

Страна: США
Жанр: Драма
Продолжительность: 02:36:24
Перевод: Профессиональный (многоголосый, закадровый) - СТС
Русские субтитры: нет

Режиссер: Мартин Брест / Martin Brest

В ролях: Аль Пачино, Крис О`Доннелл, Джеймс Ребхорн, Габриель Анвар, Филип Сеймур Хоффман, Ричард Венчур, Брэдли Уитфорд ,Рошелль Оливер, Маргарет Эджинтон, Том Риис Фаррелл

Описание: Наступил День благодарения, и отставной полковник разведки Фрэнк Слэйд решает справить праздник, «побаловав» себя поездкой в Нью-Йорк. Фрэнк хочет обставить свой последний «коронный выход» по высшему разряду: изысканный отель, шикарный лимузин, дорогая выпивка и женщины потрясающей красоты.Есть лишь две проблемки. Первая: Фрэнк слеп на оба глаза. И вторая: волнующиеся родственники полковника решают нанять за небольшую сумму провожатого в лице нуждающегося студента престижного колледжа по имени Чарли Симмз. Последнее, что было нужно в поездке полковнику Слэйду так это «зеленый» юнец Чарли. Но случилось так, что путешествие этих двух потрясающе не похожих друг на друга людей изменило их жизни навсегда.
Качество: BDRip
Формат: MP4
Видео кодек: XviD
Аудио кодек: AAC
Видео: XviD, 640x344, 1.85:1, 1 081 Kbps, 23.976 fps
Аудио: AAC, 128 Kbps, 48.0 KHz, 2 ch.
GeneralComplete name : D:\!РИПЫ\Новая папка\Scent of a Woman (1992).mp4Format : MPEG-4Format profile : Base Media / Version 2Codec ID : mp42File size : 1.32 GiBDuration : 2h 36mnOverall bit rate mode : VariableOverall bit rate : 1 210 KbpsEncoded date : UTC 2012-12-08 20:36:35Tagged date : UTC 2012-12-08 20:36:35

VideoID : 201Format : MPEG-4 VisualFormat profile : Advanced [email protected] settings, BVOP : NoFormat settings, QPel : NoFormat settings, GMC : No warppointsFormat settings, Matrix : Default (H.263)Codec ID : 20Duration : 2h 36mnBit rate mode : VariableBit rate : 1 081 KbpsMaximum bit rate : 5 964 KbpsWidth : 640 pixelsHeight : 344 pixelsDisplay aspect ratio : 1.85:1Frame rate mode : VariableFrame rate : 23.915 fpsOriginal frame rate : 23.976 fpsMinimum frame rate : 0.269 fpsMaximum frame rate : 23.976 fpsColor space : YUVChroma subsampling : 4:2:0Bit depth : 8 bitsScan type : ProgressiveCompression mode : LossyBits/(Pixel*Frame) : 0.205Stream size : 1.18 GiB (89%)Writing library : XviD 1.2.1 (UTC 2008-12-04)Encoded date : UTC 2012-12-08 20:36:35Tagged date : UTC 2012-12-08 20:37:36

AudioID : 101Format : AACFormat/Info : Advanced Audio CodecFormat profile : LCCodec ID : 40Duration : 2h 36mnBit rate mode : VariableBit rate : 128 KbpsMaximum bit rate : 157 KbpsChannel(s) : 2 channelsChannel positions : Front: L RSampling rate : 48.0 KHzCompression mode : LossyStream size : 143 MiB (11%)Encoded date : UTC 2012-12-08 20:37:31Tagged date : UTC 2012-12-08 20:37:36



Трекер:  [ 24-Дек-2012 12:26 ]

  

Скачать .torrent

Размер .torrent файла 13 KB


Размер: 1.32 GB
Хэш (hash) релиза: c13c9ccd652d5264f291e7bf94efc65d684cbc13

Еще никто не оставлял запись к записи скачать торрент [VIDEO] Запах женщины Scent of woman . Будь первым!

!Обратная связь