My Neighbor, Charles | Ryan Reynolds | Dont Be Tardy

Скачать через торрент [VIDEO] Хуан против живых мертвецов Хуан – истребитель кубинских зомби бесплатно русская версия torrent активатор

Статистика раздачи
Размер:  831 MB   |    Зарегистрирован:  5 лет 7 месяцев   |    .torrent скачан:  40 раз   |   
Раздают:  1  
   
загрузка...
 
Автор Сообщение

Galfimbul

avatar Galfimbul


Хуан против живых мертвецов / Хуан – истребитель кубинских зомби / Juan de los Muertos

Год выпуска: 2011

Страна: Испания, Куба
Жанр: ужасы, комедия
Продолжительность: 01:35:58
Перевод: Любительcкий (одноголосый)
Русские субтитры: нет

Режиссер: Алехандро Бругес / Alejandro Brugués

В ролях: Алексис Диаз Де Виллегас, Хорхе Молина, Андреа Дуро, Андрос Перугоррия Джазз Вила, Элиесер Рамирес, Антонио Дечент, Бланка Роза Бланко, Эльза Кэмп

Описание: Гавана переживает эпидемию зомби. 40-летний бездельник Хуан решил заработать на этом. Под девизом «Хуан избавит вас от тех, кого вы любили» он предлагает людям за деньги избавляться от окружающих их инфицированных родственников и друзей. Но, когда эпидемия зомби накрывает всю страну, Хуан вынужден думать уже не о своем заработке, а о выживании.
Качество: BDRip
Формат: MP4
Видео кодек: XviD
Аудио кодек: AAC
Видео: XviD, 640x344, 1.85:1, 1 080 Kbps, 23.852 fps
Аудио: AAC, 128 KBps, 48.0 KHz, 2 ch.
GeneralComplete name : D:\!РИПЫ\Новая папка\Juan de los Muertos (2011).mp4Format : MPEG-4Format profile : Base Media / Version 2Codec ID : mp42File size : 831 MiBDuration : 1h 35mnOverall bit rate mode : VariableOverall bit rate : 1 210 KbpsEncoded date : UTC 2012-12-09 00:03:01Tagged date : UTC 2012-12-09 00:03:01

VideoID : 201Format : MPEG-4 VisualFormat profile : Advanced [email protected] settings, BVOP : NoFormat settings, QPel : NoFormat settings, GMC : No warppointsFormat settings, Matrix : Default (H.263)Codec ID : 20Duration : 1h 35mnBit rate mode : VariableBit rate : 1 080 KbpsMaximum bit rate : 6 070 KbpsWidth : 640 pixelsHeight : 344 pixelsDisplay aspect ratio : 1.85:1Frame rate mode : VariableFrame rate : 23.852 fpsOriginal frame rate : 24.000 fpsMinimum frame rate : 0.136 fpsMaximum frame rate : 24.000 fpsColor space : YUVChroma subsampling : 4:2:0Bit depth : 8 bitsScan type : ProgressiveCompression mode : LossyBits/(Pixel*Frame) : 0.206Stream size : 741 MiB (89%)Writing library : XviD 1.2.1 (UTC 2008-12-04)Encoded date : UTC 2012-12-09 00:03:01Tagged date : UTC 2012-12-09 00:03:30

AudioID : 101Format : AACFormat/Info : Advanced Audio CodecFormat profile : LCCodec ID : 40Duration : 1h 35mnBit rate mode : VariableBit rate : 128 KbpsMaximum bit rate : 153 KbpsChannel(s) : 2 channelsChannel positions : Front: L RSampling rate : 48.0 KHzCompression mode : LossyStream size : 87.8 MiB (11%)Encoded date : UTC 2012-12-09 00:03:28Tagged date : UTC 2012-12-09 00:03:30


Трекер:  [ 24-Дек-2012 12:26 ]

  

Скачать .torrent

Размер .torrent файла 16 KB


Размер: 831 MB
Хэш (hash) релиза: dd23be92335cb834a3e656bd6d540b298f55d0ef

Еще никто не оставлял запись к записи скачать торрент [VIDEO] Хуан против живых мертвецов Хуан – истребитель кубинских зомби . Будь первым!

!Обратная связь