..."/> ..."> The Big Fat Quiz o.. (2012) | Frantic | 1988 | 720p | Dual | 8.2

Скачать через торрент [SERIAL] Борджиа The Borgias бесплатно русская версия torrent активатор

Статистика раздачи
Размер:  3.95 GB   |    Зарегистрирован:  5 лет 6 месяцев   |    .torrent скачан:  85 раз   |   
Раздают:  1  
   
загрузка...
 
Автор Сообщение

Galfimbul

avatar Galfimbul


Борджиа / The Borgias

Год выпуска: 2011

Страна: США
Жанр: Историческая драма
Продолжительность: 00:53:00
Перевод: Профессиональный (многоголосый, LostFilm)
Русские субтитры: нет
Режиссер: Neil Jordan, Jeremy Podeswa, Simon Cellan Jones, John Maybury
В ролях: Peter Sullivan, Jeremy Irons, François Arnaud, Holliday Grainger, David Oakes, Aidan Alexander, Luke Pasqualino и др.
Описание: Драматический сериал "Борджиа" – это новый проект от телеканала Showtime. Один этот факт уже говорит о многом... и сулит захватывающий сюжет, шокирующие сцены и кровь, стынущую у зрителя в жилах.

В центре повествования - знаменитое семейство Борджиа, достигшее вершин власти в Италии эпохи Возрождения.

Слоган сериала: «Секс. Власть. Убийство. Аминь.» - полностью характеризует безжалостную политику и сексуальную распущенность, которыми запомнились в истории папа римский Александр VI, в миру Родриго Борджиа, и члены его семьи.
Качество: HDTVRip
Формат: MP4
Видео кодек: H.264
Аудио кодек: AAC
Видео: MPEG4 Video (H264); 480x272 (16:9); 449 kbps; 24.00fps
Аудио: AAC 44100Hz stereo 126 kbps
ОбщееПолное имя : ...\Borgias [480x272, mp4]\Borgias [season 1, 480x272, mp4]\Borgias.S01E01E02.mp4Формат : MPEG-4Профиль формата : Base Media / Version 2Идентификатор кодека : mp42Размер файла : 395 МбайтПродолжительность : 1 ч. 36 м.Режим общего битрейта : ПеременныйОбщий поток : 575 Кбит/секДата кодирования : UTC 2012-12-04 22:30:53Дата пометки : UTC 2012-12-04 22:30:55Программа кодирования : mp4creator 1.4.4

ВидеоИдентификатор : 1Формат : AVCФормат/Информация : Advanced Video CodecПрофиль формата : <a href="mailto:[email protected]Параметр" class="postLink">[email protected]Параметр</a> CABAC формата : НетПараметр ReFrames формата : 2 кадраИдентификатор кодека : avc1Идентификатор кодека/Информация : Advanced Video CodingПродолжительность : 1 ч. 36 м.Вид битрейта : ПеременныйБитрейт : 447 Кбит/секШирина : 480 пикселейВысота : 272 пикселяСоотношение сторон : 16:9Режим частоты кадров : ПостоянныйЧастота кадров : 24,000 кадра/секЦветовое пространство : YUVСубдискретизация насыщенности : 4:2:0Битовая глубина : 8 битТип развёртки : ПрогрессивнаяБит/(Пиксели*Кадры) : 0.143Размер потока : 307 Мбайт (78%)Язык : EnglishДата кодирования : UTC 2012-12-04 22:30:53Дата пометки : UTC 2012-12-04 22:30:55

АудиоИдентификатор : 2Формат : AACФормат/Информация : Advanced Audio CodecПрофиль формата : LCИдентификатор кодека : 40Продолжительность : 1 ч. 36 м.Продолжительность оригинала : 1 ч. 36 м.Вид битрейта : ПеременныйБитрейт : 126 Кбит/секМаксимальный битрейт : 198 Кбит/секКаналы : 2 каналаРасположение каналов : Front: L RЧастота : 44,1 КГцМетод сжатия : С потерямиРазмер потока : 86,4 Мбайт (22%)Размер потока оригинала : 86,4 Мбайт (22%)Язык : EnglishДата кодирования : UTC 2012-12-04 22:30:55Дата пометки : UTC 2012-12-04 22:30:55


1-2). Отравленная чаша (The Poisoned Chalice), Убийца (The Assassin)
3). Мавр (The Moor)
4). Свадьба Лукреции (Lucrezia's Wedding)
5). Влюбленные Борджиа (The Borgias in Love)
6). Французский король (The French King)
7). Смерть на бледном коне (Death, on a Pale Horse)
8). Искусство войны (The Art of War)
9). Никто (Nessuno (Nobody))
1. Бык Борджиа (The Borgia Bull)
2. Паоло (Paolo)
3. Блестящий обман (The Beautiful Deception)
4. Бродячие собаки (Stray Dogs)
5. Выбор (The Choice)
6. Пепельная среда (Day of Ashes)
7. Осада Форли (The Siege at Forli)
8. Правда и ложь (Truth and Lies)
9. Мир чудес (World of Wonders)
10. Признание (The Confession)
Не забываем нажать на "Спасибо"!

Трекер:  [ 24-Дек-2012 12:36 ]

  

Скачать .torrent

Размер .torrent файла 21 KB


Размер: 3.95 GB
Хэш (hash) релиза: 3327f40098dda8df89b8cc80292c08a38ba1777f

Еще никто не оставлял запись к записи скачать торрент [SERIAL] Борджиа The Borgias . Будь первым!

!Обратная связь