The Asterisk War | Calendar | Les derniers hommes d'Alep 2017 FRENCH HDTV 720p x264

Скачать через торрент [SERIAL] Чужой среди своих Родина бесплатно русская версия torrent активатор

Статистика раздачи
Размер:  9.85 GB   |    Зарегистрирован:  5 лет 6 месяцев   |    .torrent скачан:  448 раз   |   
Раздают:  1  
   
загрузка...
 
Автор Сообщение

Galfimbul

avatar Galfimbul



Чужой среди своих / Родина / Homeland
Год выпуска: 2011-2012

Страна: США
Жанр: Триллер, Драма
Продолжительность: ~00:55:00
Перевод: Профессиональный многоголосый закадровый - LostFilm

Русские субтитры: нет

Авторы сериала: Майкл Куэста, Дэниэл Эттиэс, Гай Ферленд, ...

В ролях: Клэр Дэйнс, Дамиан Льюис, Морена Баккарин, Дэвид Хэрвуд, Диего Клаттенхофф, Джексон Паке, Моргон Сэйлор, Мэнди Пэтинкин, Дэвид Марсиано, Навид Негабан

Описание: В центре сюжета находятся сержант морской пехоты ВМФ США Николас Броди, вернувшийся домой после восьми лет отсутствия без вести в Ираке, и Кэрри Мэтисон, офицер ЦРУ, которая подозревает его в причастности к подготовке террористической атаки на Америку.


Качество: BDRip, WEB-DLRip
Формат: MP4
Видео кодек: XviD
Аудио кодек: AAC
Видео: XviD, 640x360, 16:9, 1 080 Kbps, 23.976
Аудио: AAC, 128 Kbps, 48.0 KHz, 2 ch.
E01 - Pilot
E02 - Grace
E03 - Clean Skin
E04 - Semper I
E05 - Blind Spot
E06 - The Good Soldier
E07 - The Weekend
E08 - Achilles Heel
E09 - Crossfire
E10 - Representative Brody
E11 - The Vest
E12 - Marine One
E01 - The Smile
E02 - Beirut Is Back
E03 - State of Independence
E04 - New Car Smell
E05 - Q&A
E06 - A Gettysburg Address
E07 - The Clearing
E08 - I'll Fly Away
E09 - Two Hats
E10 - Broken Hearts
GeneralComplete name : D:\!РИПЫ\Новая папка\Homeland. Season 1-2\s01\E02 - Grace.mp4Format : MPEG-4Format profile : Base Media / Version 2Codec ID : mp42File size : 437 MiBDuration : 50mn 27sOverall bit rate mode : VariableOverall bit rate : 1 210 KbpsEncoded date : UTC 2012-11-07 12:02:45Tagged date : UTC 2012-11-07 12:02:45Writing application : Yamb 2.1.0.0 []http://yamb.unite-video.com]

VideoID : 201Format : MPEG-4 VisualFormat profile : Advanced [email protected] settings, BVOP : NoFormat settings, QPel : NoFormat settings, GMC : No warppointsFormat settings, Matrix : Default (H.263)Codec ID : 20Duration : 50mn 25sBit rate mode : VariableBit rate : 1 080 KbpsMaximum bit rate : 7 006 KbpsWidth : 640 pixelsHeight : 360 pixelsDisplay aspect ratio : 16:9Frame rate mode : VariableFrame rate : 23.862 fpsOriginal frame rate : 23.976 fpsMinimum frame rate : 0.285 fpsMaximum frame rate : 23.976 fpsColor space : YUVChroma subsampling : 4:2:0Bit depth : 8 bitsScan type : ProgressiveCompression mode : LossyBits/(Pixel*Frame) : 0.197Stream size : 390 MiB (89%)Writing library : XviD 1.2.1 (UTC 2008-12-04)Encoded date : UTC 2012-11-07 12:02:45Tagged date : UTC 2012-11-07 12:02:56

AudioID : 101Format : AACFormat/Info : Advanced Audio CodecFormat profile : LCCodec ID : 40Duration : 50mn 27sBit rate mode : VariableBit rate : 128 KbpsMaximum bit rate : 148 KbpsChannel(s) : 2 channelsChannel positions : Front: L RSampling rate : 48.0 KHzCompression mode : LossyStream size : 46.2 MiB (11%)Encoded date : UTC 2012-11-07 12:02:55Tagged date : UTC 2012-11-07 12:02:56



Трекер:  [ 24-Дек-2012 12:36 ]

  

Скачать .torrent

Размер .torrent файла 26 KB


Размер: 9.85 GB
Хэш (hash) релиза: 1af45c9b3144bc2de816339a81cb226be6fd03e7

Еще никто не оставлял запись к записи скачать торрент [SERIAL] Чужой среди своих Родина . Будь первым!

!Обратная связь