Сборки ОС Windows от Progmatron | Chip №4 Россия (апрель) (2016) PDF | Mickey and the Ro...

Скачать через торрент [VIDEO] Аризонская мечта Arizona Dream бесплатно русская версия torrent активатор

Статистика раздачи
Размер:  1.19 GB   |    Зарегистрирован:  5 лет 6 месяцев   |    .torrent скачан:  50 раз   |   
Раздают:  1  
   
загрузка...
 
Автор Сообщение

Galfimbul

avatar Galfimbul


Аризонская мечта / Arizona Dream

Год выпуска: 1993

Страна: США, Франция
Жанр: фэнтези, драма, мелодрама, комедия
Продолжительность: 02:20:23
Перевод: Профессиональный (многоголосый, закадровый)
Русские субтитры: нет

Режиссер: Эмир Кустурица / Emir Kusturica

В ролях: Джонни Депп, Джерри Льюис, Фэй Данауэй, Лили Тейлор, Винсент Галло, Паулина Поризкова, Майкл Дж. Поллард, Кэндис Мэйсон, Алексия Рэйн, Полли Нунан

Описание: Дядя Лео привык добиваться своего. А хочет он, чтобы племянник Аксель стал шафером на его свадьбе и работал в его фирме по продаже «кадиллаков». Аксель же ничего не хочет.

Он предпочитает проводить время в компании своей возлюбленной, местной сумасшедшей Элен, и ее падчерицы Грейс, и вместе с ними предаваться мечтам. Влюбленная Элен мечтает летать как птица. Отвергнутая Грейс мечтает перевоплотиться в черепаху.

Аксель мечтает о заснеженных просторах Аляски, где охотники-эскимосы ловят стрелозубых палтусов. Мечтает даже дядя Лео: построить бы целую гору из «кадиллаков» и забраться бы по ней на Луну…

Качество: BDRip
Формат: MP4
Видео кодек: XviD
Аудио кодек: AAC
Видео: XviD, 640x344, 1.85:1, 1 080 Kbps, 23.976 fps
Аудио: AAC, 128 Kbps, 48.0 KHz, 2 ch.
GeneralComplete name : D:\!РИПЫ\Новая папка\Arizona Dream (1993).mp4Format : MPEG-4Format profile : Base Media / Version 2Codec ID : mp42File size : 1.19 GiBDuration : 2h 20mnOverall bit rate mode : VariableOverall bit rate : 1 210 KbpsEncoded date : UTC 2012-12-07 20:10:36Tagged date : UTC 2012-12-07 20:10:36

VideoID : 201Format : MPEG-4 VisualFormat profile : Advanced [email protected] settings, BVOP : NoFormat settings, QPel : NoFormat settings, GMC : No warppointsFormat settings, Matrix : Default (H.263)Codec ID : 20Duration : 2h 20mnBit rate mode : VariableBit rate : 1 080 KbpsMaximum bit rate : 4 579 KbpsWidth : 640 pixelsHeight : 344 pixelsDisplay aspect ratio : 1.85:1Frame rate mode : VariableFrame rate : 23.976 fpsMinimum frame rate : 0.428 fpsMaximum frame rate : 23.976 fpsColor space : YUVChroma subsampling : 4:2:0Bit depth : 8 bitsScan type : ProgressiveCompression mode : LossyBits/(Pixel*Frame) : 0.205Stream size : 1.06 GiB (89%)Writing library : XviD 1.2.1 (UTC 2008-12-04)Encoded date : UTC 2012-12-07 20:10:36Tagged date : UTC 2012-12-07 20:11:44

AudioID : 101Format : AACFormat/Info : Advanced Audio CodecFormat profile : LCCodec ID : 40Duration : 2h 20mnBit rate mode : VariableBit rate : 128 KbpsMaximum bit rate : 145 KbpsChannel(s) : 2 channelsChannel positions : Front: L RSampling rate : 48.0 KHzCompression mode : LossyStream size : 129 MiB (11%)Encoded date : UTC 2012-12-07 20:11:36Tagged date : UTC 2012-12-07 20:11:44



Трекер:  [ 24-Дек-2012 12:26 ]

  

Скачать .torrent

Размер .torrent файла 12 KB


Размер: 1.19 GB
Хэш (hash) релиза: dc261475f5bc46ec8e59d236938d9b873406ac37

Еще никто не оставлял запись к записи скачать торрент [VIDEO] Аризонская мечта Arizona Dream . Будь первым!

!Обратная связь