1 сезон / 4 серия Черный цветок / Чорна квітка date_range2016 / Украина star5.786
Hard Bargain season 07 episode 16

Скачать через торрент [VIDEO] Привет, Билл! Знакомство с Биллом бесплатно русская версия torrent активатор

Статистика раздачи
Размер:  774 MB   |    Зарегистрирован:  5 лет 3 месяца   |    .torrent скачан:  34 раза   |   
Раздают:  1  
   
загрузка...
 
Автор Сообщение

Galfimbul

avatar Galfimbul


Привет, Билл! / Знакомство с Биллом / Meet Bill

Год выпуска: 2007

Страна: США
Жанр: Комедия, драма
Продолжительность: 01:29:27
Перевод: Профессиональный (полное дублирование)
Русские субтитры: нет

Режиссер: Берни Голдманн / Bernie Goldmann, Мелисса Уоллэк / Melissa Wallack

В ролях: Аарон Экхарт, Джессика Альба, Элизабет Бэнкс, Тимоти Олифант, Логан Лерман, Мариса Кохлан, Ширли Бренер, Рид Даймонд, Крейг Бьерк

Описание: Внезапно спокойная жизнь Билла превращается в ураган событий, который разрушает все, чего он добивался в своей жизни. Все начинается с того, что жена изменяет ему с известным телеведущим. Как следствие Билл теряет интерес к своей перспективной работе в банке. Кажется, что ничего нельзя изменить в лучшую сторону. Но Билл не сдается. Он решает принять участие в программе шефства над учениками в одной из местных школ. Там он знакомиться с импульсивным и упрямым подростком, который постепенно решает все его проблемы, такие как неуверенность в себе, депрессию и кризис среднего возраста.
Качество: BDRip
Формат: MP4
Видео кодек: XviD
Аудио кодек: AAC
Видео: XviD, 640x344, 1.85:1, 1 080 Kbps, 24.889 fps
Аудио: AAC, 128 Kbps, 48.0 KHz, 2 ch
GeneralComplete name : D:\!РИПЫ\Новая папка\Meet Bill (2007).mp4Format : MPEG-4Format profile : Base Media / Version 2Codec ID : mp42File size : 774 MiBDuration : 1h 29mnOverall bit rate mode : VariableOverall bit rate : 1 210 KbpsEncoded date : UTC 2012-12-08 10:36:40Tagged date : UTC 2012-12-08 10:36:40

VideoID : 201Format : MPEG-4 VisualFormat profile : Advanced [email protected] settings, BVOP : NoFormat settings, QPel : NoFormat settings, GMC : No warppointsFormat settings, Matrix : Default (H.263)Codec ID : 20Duration : 1h 29mnBit rate mode : VariableBit rate : 1 080 KbpsMaximum bit rate : 6 774 KbpsWidth : 640 pixelsHeight : 344 pixelsDisplay aspect ratio : 1.85:1Frame rate mode : VariableFrame rate : 24.889 fpsOriginal frame rate : 25.000 fpsMinimum frame rate : 0.595 fpsMaximum frame rate : 25.000 fpsColor space : YUVChroma subsampling : 4:2:0Bit depth : 8 bitsScan type : ProgressiveCompression mode : LossyBits/(Pixel*Frame) : 0.197Stream size : 691 MiB (89%)Writing library : XviD 1.2.1 (UTC 2008-12-04)Encoded date : UTC 2012-12-08 10:36:40Tagged date : UTC 2012-12-08 10:37:16

AudioID : 101Format : AACFormat/Info : Advanced Audio CodecFormat profile : LCCodec ID : 40Duration : 1h 29mnBit rate mode : VariableBit rate : 128 KbpsMaximum bit rate : 150 KbpsChannel(s) : 2 channelsChannel positions : Front: L RSampling rate : 48.0 KHzCompression mode : LossyStream size : 81.8 MiB (11%)Encoded date : UTC 2012-12-08 10:37:11Tagged date : UTC 2012-12-08 10:37:16



Трекер:  [ 24-Дек-2012 12:26 ]

  

Скачать .torrent

Размер .torrent файла 15 KB


Размер: 774 MB
Хэш (hash) релиза: e4eb4b2ceb9d8c490105b77004c1c477c19d62d4

Еще никто не оставлял запись к записи скачать торрент [VIDEO] Привет, Билл! Знакомство с Биллом . Будь первым!

!Обратная связь