Qualidea Code | Trial and Retribution | TheVideo

Скачать через торрент [SERIAL] Декстер Dexter бесплатно русская версия torrent активатор

Статистика раздачи
Размер:  17.8 GB   |    Зарегистрирован:  5 лет 7 месяцев   |    .torrent скачан:  417 раз   |   
Раздают:  1  
   
загрузка...
 
Автор Сообщение

Galfimbul

avatar Galfimbul


Декстер / Dexter

Год выпуска: 2006

Страна: США
Жанр: Драма / Детектив / Криминал / Триллер
Продолжительность: 00:50:00
Перевод: Профессиональный (многоголосый, закадровый)
Русские субтитры: нет
Режиссер: Michael Cuesta, Robert Lieberman, Tony Goldwyn и др.
В ролях: Michael C. Hall, Jennifer Carpenter, James Remar, Julie Benz, Christian Camargo, Lauren Velez, Erik King, David Zayas, C.S. Lee, Mark Pellegrino, Dominic Janes, Daniel Goldman, Christina Robinson, Devon Graye, Margo Martindale и др.
Описание: Декстер — медик полицейского департамента Майями, специализирующийся на анализе крови после убийств. Он живет двойной жизнью. Вторая сторона личности Декстера — серийный убийца. Он вершит свое правосудие, убивая преступников, которых не смогла наказать полиция. Декстер вынужден скрывать свою двойную жизнь от своей сестры, девушки и сослуживцев.
Качество: DVDRip
Формат: MP4
Видео кодек: H.264
Аудио кодек: AAC
Видео: MPEG4 Video (H264); 480x272 (16:9); 449 kbps; 24.00fps
Аудио: AAC 44100Hz stereo 126 kbps
ОбщееПолное имя : ...\Dexter [480x272, mp4]\Dexter [season 1, 480x272, mp4]\Dexter.s01e01.mp4Формат : MPEG-4Профиль формата : Base Media / Version 2Идентификатор кодека : mp42Размер файла : 216 МбайтПродолжительность : 53 м.Режим общего битрейта : ПеременныйОбщий поток : 569 Кбит/секДата кодирования : UTC 2012-12-06 02:35:03Дата пометки : UTC 2012-12-06 02:35:08Программа кодирования : mp4creator 1.4.4

ВидеоИдентификатор : 1Формат : AVCФормат/Информация : Advanced Video CodecПрофиль формата : <a href="mailto:[email protected]Параметр" class="postLink">[email protected]Параметр</a> CABAC формата : НетПараметр ReFrames формата : 2 кадраИдентификатор кодека : avc1Идентификатор кодека/Информация : Advanced Video CodingПродолжительность : 53 м.Вид битрейта : ПеременныйБитрейт : 442 Кбит/секШирина : 480 пикселейВысота : 272 пикселяСоотношение сторон : 16:9Режим частоты кадров : ПостоянныйЧастота кадров : 24,000 кадра/секЦветовое пространство : YUVСубдискретизация насыщенности : 4:2:0Битовая глубина : 8 битТип развёртки : ПрогрессивнаяБит/(Пиксели*Кадры) : 0.141Размер потока : 168 Мбайт (78%)Язык : EnglishДата кодирования : UTC 2012-12-06 02:35:03Дата пометки : UTC 2012-12-06 02:35:07

АудиоИдентификатор : 2Формат : AACФормат/Информация : Advanced Audio CodecПрофиль формата : LCИдентификатор кодека : 40Продолжительность : 53 м.Продолжительность оригинала : 53 м.Вид битрейта : ПеременныйБитрейт : 126 Кбит/секМаксимальный битрейт : 221 Кбит/секКаналы : 2 каналаРасположение каналов : Front: L RЧастота : 44,1 КГцМетод сжатия : С потерямиРазмер потока : 47,6 Мбайт (22%)Размер потока оригинала : 47,6 Мбайт (22%)Язык : EnglishДата кодирования : UTC 2012-12-06 02:35:07Дата пометки : UTC 2012-12-06 02:35:08
1). Декстер (Dexter).
2). Крокодиловы слезы (Crocodile).
3). Черри со льдом (Popping Cherry).
4). Рука помощи (Let's Give the Boy a Hand).
5). Любовь по-американски (Love American Style).
6). Вернуть отправителю (Return to Sender).
7). Круг друзей (Circle of Friends).
8). Психоанализ (Shrink Wrap).
9). Отцу виднее (Father Knows Best).
10). Жизнь в красном цвете (Seeing Red).
11). Истина где-то рядом (Truth Be Told).
12). Рожденный свободным (Born Free).
1). Оно живет! (It's Alive!).
2). Вдох, выдох (Waiting to Exhale).
3). Верю - не верю (An Inconvenient Lie).
4). Увидеть насквозь (See-Through).
5). Темный защитник (The Dark Defender).
6). Декс, ложь и видео (Dex, Lies, and Videotape).
7). И вырос лес в ту ночь (That Night, a Forest Grew).
8). Наступает утро (Morning Comes).
9). Сопротивление бесполезно (Resistance Is Futile).
10). Кое-что о Гарри (There's Something About Harry).
11). Впереди поворот налево (Left Turn Ahead).
12). Британское вторжение (The British Invasion).
1). Отче наш (Our Father).
2). В поисках Фрибо (Finding Freebo).
3). Лев сегодня спит (The Lion Sleeps Tonight).
4). Дела семейные (All in the Family).
5). Курс на Бимини (Turning Biminese).
6). Да, я справлюсь (Si se puede).
7). Идеальный пирог (Easy as Pie).
8). Дело рук человеческих (The Damage a Man Can Do).
9). О прошлой ночи (About Last Night).
10). Иди своей дорогой (Go Your Own Way).
11). У меня была мечта (I Had a Dream).
12). Декстер как он есть (Do You Take Dexter Morgan?).
1). Жизнь как в сказке (Living the Dream).
2). У всех на виду (Remains to Be Seen).
3). Ослепленный светом (Blinded by the Light).
4). Декстер берет выходной (Dex Takes a Holiday).
5). Грязный Гарри (Dirty Harry).
6). Если бы молот был у меня (If I Had a Hammer).
7). Состояние прилива (Slack Tide).
8). Выездное убийство (Road Kill).
9). Изголодавшийся (Hungry Man).
10). Потерянные (Lost Boys).
11). Привет, Декстер Морган (Hello, Dexter Morgan).
12). Бегство (The Getaway).
1). Моя вина (My Bad).
2). Привет, бандит (Hello Bandit).
3). Практически идеальный (Practically Perfect).
4). Красавица и чудовище (Beauty and the Beast).
5). Первая кровь (First Blood).
6). Всё стало явным (Everything Is Illumenated).
7). Огради нас (Circle Us).
8). Бери! (Take It!).
9). Тяжело быть подростком (Teenage Wasteland).
10). Начало (In The Beginning).
11). Сбежать на сухогрузе (Hop A Freighter).
12). Крупное дело (The Big One).
1). Вопросы веры (Those Kinds of Things).
2). Сказки на ночь (Once Upon a Time...).
3). Полицейский и бандит (Smokey and the Bandit).
4). Лошадь другой масти (A Horse of a Different Color).
5). Ангел смерти (The Angel of Death).
6). Выпустить тьму (Just Let Go).
7). Небраска (Nebraska).
8). Грех недеяния (Sins of Omission).
9). Неуловимый Геллар (Get Gellar).
10). Кролик-рикошет (Ricochet Rabbit).
11). Спасительная рука (Talk to the Hand).
12). И настал конец света (This Is the Way the World Ends).


Трекер:  [ 24-Дек-2012 12:36 ]

  

Скачать .torrent

Размер .torrent файла 51 KB


Размер: 17.8 GB
Хэш (hash) релиза: 5b94572908c786b00dfb0ecb86adb03290a3478d

Еще никто не оставлял запись к записи скачать торрент [SERIAL] Декстер Dexter . Будь первым!

!Обратная связь