Pościg / The Chase (1994) [Lektor] | Martin Sherman | Planet der Affen

Скачать через торрент [SERIAL] Касл Castle бесплатно русская версия torrent активатор

Статистика раздачи
Размер:  1.55 GB   |    Зарегистрирован:  5 лет 6 месяцев   |    .torrent скачан:  38 раз   |   
Раздают:  1  
   
загрузка...
 
Автор Сообщение

Galfimbul

avatar Galfimbul


Касл / Castle

Год выпуска: 2012

Страна: США
Жанр: Детектив, драма, комедия
Продолжительность: 00:43:20
Перевод: Профессиональный (многоголосый, закадровый) (LostFilm)
Русские субтитры: нет
Режиссер: Дэвид Баррет, Феликс Энрикез Алкала, Брайан Спайсер, Холли Дэйл, Роб Бауман
В ролях: Натан Филлион, Стана Катик, Джон Уэртас, Сьюзан Салливан, Молли С. Куинн
Описание: Всемирно известный писатель Ричард Касл устал от собственной популярности... но неожиданно он узнает, что реальный серийный убийца копирует сцены преступлений из его книг. Вскоре Ричарда начинает допрашивать умная и агрессивная детектив Кейт Беккет, которая любит держать все под строгим контролем. Они начинают работать над следствием вместе, что приводит к различным разногласиям, однако одновременно с этим у них завязываются более близкие отношения. Ко всему этому стоит добавить, что Ричарда постоянно достаёт его мать, да ещё и с дочкой-подростком у Касла сложные отношения.
Качество: WEB-DLRip
Формат: MP4
Видео кодек: H.264
Аудио кодек: AAC
Видео: MPEG4 Video (H264); 480x272 (16:9); 449 kbps; 24.00fps
Аудио: AAC 44100Hz stereo 126 kbps
GeneralComplete name : ...\Castle [season 5, 480x272, mp4]\Castle.S05E01.mp4Format : MPEG-4Format profile : Base Media / Version 2Codec ID : mp42File size : 177 MiBDuration : 43mn 22sOverall bit rate mode : VariableOverall bit rate : 571 KbpsEncoded date : UTC 2012-10-03 14:07:12Tagged date : UTC 2012-10-03 14:07:13Writing application : mp4creator 1.4.4

VideoID : 1Format : AVCFormat/Info : Advanced Video CodecFormat profile : <a href="mailto:[email protected]" class="postLink">[email protected]</a> settings, CABAC : NoFormat settings, ReFrames : 2 framesCodec ID : avc1Codec ID/Info : Advanced Video CodingDuration : 43mn 22sBit rate mode : VariableBit rate : 443 KbpsWidth : 480 pixelsHeight : 272 pixelsDisplay aspect ratio : 16:9Frame rate mode : ConstantFrame rate : 24.000 fpsColor space : YUVChroma subsampling : 4:2:0Bit depth : 8 bitsScan type : ProgressiveBits/(Pixel*Frame) : 0.141Stream size : 137 MiB (78%)Language : EnglishEncoded date : UTC 2012-10-03 14:07:12Tagged date : UTC 2012-10-03 14:07:13

AudioID : 2Format : AACFormat/Info : Advanced Audio CodecFormat profile : LCCodec ID : 40Duration : 43mn 20sSource duration : 43mn 21sBit rate mode : VariableBit rate : 126 KbpsMaximum bit rate : 317 KbpsChannel(s) : 2 channelsChannel positions : Front: L RSampling rate : 44.1 KHzCompression mode : LossyStream size : 38.9 MiB (22%)Source stream size : 38.9 MiB (22%)Language : EnglishEncoded date : UTC 2012-10-03 14:07:13Tagged date : UTC 2012-10-03 14:07:13
01) После бури (After the Storm)
02) Облачно, возможно убийство (Cloudy with a Chance of Murder)
03) Я сохраню наш секрет (Secret's Safe with Me)
04) Он написал убийство (Murder He Wrote)
05) Возможная причина (Probable Cause)
06) Последний рубеж (The Final Frontier)
07) Лебединая песня (Swan Song)
08) После работы (After Hours)


Трекер:  [ 24-Дек-2012 12:36 ]

  

Скачать .torrent

Размер .torrent файла 16 KB


Размер: 1.55 GB
Хэш (hash) релиза: 76abd419d26792dab80c6b98096f217bf96817d3

Еще никто не оставлял запись к записи скачать торрент [SERIAL] Касл Castle . Будь первым!

!Обратная связь