Télécharger Part 9 | Cantopop At 50 - 流行經典50年Cantopop At 50 | The circus – Season 3

Скачать через торрент [MULT] Мой Маленький Пони: Дружба это Магия Дружба - это Чудо бесплатно русская версия torrent активатор

Статистика раздачи
Размер:  1.06 GB   |    Зарегистрирован:  5 лет 6 месяцев   |    .torrent скачан:  60 раз   |   
Раздают:  1  
   
загрузка...
 
Автор Сообщение

Galfimbul

avatar Galfimbul


Мой Маленький Пони: Дружба это Магия 3 / My Little Pony: Friendship Is Magic 3

Год выпуска: 2012г.
[b]Продолжительность:
13 эп. по 22 мин.
Производство: США, Канада
Жанр: фэнтези, комедия, семейный
Перевод: Субтитры
Хардсаб: Да
Субтитры: Русские субтитры от anopensmile
Дата мировой премьеры: 10 ноября 2012
Режиссер: Джейсон Тиссен / Jayson Thiessen
Роли озвучивали: Тара Стронг, Эшлин Бол, Клэр Корлетт, Мишель Кребер, Андреа Либман и другие
Описание мультфильма:
Главная героиня — единорог по имени Твайлайт Спаркл, ученица Принцессы Селестии, которая всё время сидела за книгами и не желала ни с кем общаться. Видя, как героиня зарылась с головой в учёбу, Принцесса даёт ей задание найти друзей и посылает Твайлайт и её ассистента, дракона по имени Спайк, в Понивилль. Там она встречает разных пони, своих новых друзей: задиристую Рейнбоу Деш, элегантную Рарити, трудолюбивую Эплджек, робкую Флатершай, и гиперактивную Пинки Пай. Вместе они исследуют город, решают проблемы жителей и находят новых друзей. Каждый день Твайлайт узнаёт что-то новое о дружбе и сообщает об этом Селестии.[/b]
Рейтинг:

Качество: WEB-DLRip | Формат: MP4 | Видео кодек: H.264 | Аудио кодек: AAC
Видео: 800x448 (AR 16:9), 850 Kbps, 23.976 fps | Аудио: 128 Kbps, 48.0 KHz, 2ch, Stereo
1. The Crystal Empire, part 1
2. The Crystal Empire, part 2
3. Too Many Pinkie Pies
4. One Bad Apple
5. Magic Duel
General
Complete name : K:\Torrents\Мои раздачи\[MULTFORPDA] MLP-FiM 3 [800x]\MLP-FiM S03E01.mp4
Format : MPEG-4
Format profile : Base Media
Codec ID : isom
File size : 155 MiB
Duration : 22mn 3s
Overall bit rate mode : Variable
Overall bit rate : 983 Kbps
Encoded date : UTC 2012-11-14 18:19:02
Tagged date : UTC 2012-11-14 18:19:02

Video
ID : 1
Format : AVC
Format/Info : Advanced Video Codec
Format profile : <a href="mailto:[email protected]" class="postLink">[email protected]</a>
Format settings, CABAC : Yes
Format settings, ReFrames : 6 frames
Codec ID : avc1
Codec ID/Info : Advanced Video Coding
Duration : 22mn 3s
Bit rate : 850 Kbps
Maximum bit rate : 3 170 Kbps
Width : 800 pixels
Height : 448 pixels
Display aspect ratio : 16:9
Frame rate mode : Constant
Frame rate : 23.976 fps
Color space : YUV
Chroma subsampling : 4:2:0
Bit depth : 8 bits
Scan type : Progressive
Bits/(Pixel*Frame) : 0.099
Stream size : 134 MiB (87%)
Writing library : x264 core 124 r2197 69a0443
Encoding settings : cabac=1 / ref=6 / deblock=1:0:0 / analyse=0x1:0x111 / me=umh / subme=9 / psy=1 / psy_rd=1.00:0.00 / mixed_ref=1 / me_range=24 / chroma_me=1 / trellis=1 / 8x8dct=0 / cqm=0 / deadzone=21,11 / fast_pskip=0 / chroma_qp_offset=-2 / threads=4 / sliced_threads=0 / nr=0 / decimate=1 / interlaced=0 / bluray_compat=0 / constrained_intra=0 / bframes=6 / b_pyramid=2 / b_adapt=2 / b_bias=0 / direct=3 / weightb=1 / open_gop=0 / weightp=2 / keyint=250 / keyint_min=23 / scenecut=40 / intra_refresh=0 / rc_lookahead=40 / rc=2pass / mbtree=1 / bitrate=850 / ratetol=1.0 / qcomp=0.60 / qpmin=0 / qpmax=69 / qpstep=4 / cplxblur=20.0 / qblur=0.5 / ip_ratio=1.40 / aq=1:1.00
Encoded date : UTC 2012-11-14 18:19:02
Tagged date : UTC 2012-11-14 18:19:04

Audio
ID : 2
Format : AAC
Format/Info : Advanced Audio Codec
Format profile : LC
Codec ID : 40
Duration : 22mn 3s
Bit rate mode : Variable
Bit rate : 128 Kbps
Maximum bit rate : 150 Kbps
Channel(s) : 2 channels
Channel positions : Front: L R
Sampling rate : 48.0 KHz
Compression mode : Lossy
Stream size : 20.2 MiB (13%)
Encoded date : UTC 2012-11-14 18:19:03
Tagged date : UTC 2012-11-14 18:19:04
Внимание!
Раздача ведётся путём добавления новых выпусков; при каждом добавлении создаётся новый торрент. Чтобы начать докачку нового выпуска, пользователям необходимо сделать следующее:
(1) остановить скачивание,
(2) удалить старый торрент у себя из клиента (старые серии удалять не надо),
(3) скачать новый торрент и запустить его у себя в клиенте вместо старого, при этом указать клиенту путь в старую папку куда и должно происходить скачивание новых выпусков. Ваш клиент при этом должен произвести хеширование (проверку) старой папки (если не производит сам - помогите ему сделать это). В результате он будет докачивать только те выпуски, которых у Вас ещё нет. Старые выпуски при этом не удаляются, а продолжают раздаваться!
Eсли Вы уже удалили старые выпуски, то предотвратить их повторную закачку можно, сняв галочки в соответствующих местах при запуске нового торрента. По возможности, желательно не удалять старые выпуски как можно дольше, чтобы релизёр не только продолжал раздавать старые выпуски, но и смог сконцентрироваться на новых.


Трекер:  [ 24-Дек-2012 12:39 ]

  

Скачать .torrent

Размер .torrent файла 11 KB


Размер: 1.06 GB
Хэш (hash) релиза: 884295e3ecce14169d65471c60c61b1de10bff10

Еще никто не оставлял запись к записи скачать торрент [MULT] Мой Маленький Пони: Дружба это Магия Дружба - это Чудо . Будь первым!

!Обратная связь