French Dining Room Art | Chapter 11: Izumi's Commentary Power | Paper Money

Скачать через торрент [MULT] Паранорман, или Как приручить зомби ParaNorman бесплатно русская версия torrent активатор

Статистика раздачи
Размер:  747 MB   |    Зарегистрирован:  5 лет 6 месяцев   |    .torrent скачан:  39 раз   |   
Раздают:  1  
   
загрузка...
 
Автор Сообщение

Galfimbul

avatar Galfimbul


Паранорман, или Как приручить зомби / ParaNorman«You don't become a hero by being normal.»
Страна: США
Жанр: мультфильм, ужасы, фэнтези, комедия, приключения, семейный
Год выпуска: 2012
Продолжительность: 01:32:15
Перевод: Профессиональный (дублированный)
Субтитры: Нет
Режиссер: Крис Батлер / Chris Butler, Сэм Фелл / Sam Fell
Роли озвучивали: Коди Смит-МакФи (Norman Babcock, озвучка), Таккер Албрицци (Neil, озвучка), Анна Кендрик (Courtney Babcock, озвучка), Кейси Аффлек (Mitch, озвучка), Кристофер Минц-Плассе (Alvin, озвучка), Лесли Манн (Sandra Babcock, озвучка), Джефф Гарлин (Perry Babcock, озвучка), Илэйн Стритч (Grandma, озвучка), Бернард Хилл (The Judge, озвучка), Джоделль Ферланд (Aggie, озвучка), Темпестт Блэдзой (Sheriff Hooper, озвучка), Алекс Борштейн (Mrs. Henscher, озвучка)

Описание: Норман, Паранорман. Единственная надежда полусонного городка в борьбе с полчищами нечисти. Его оружие - супер-мега-дар: умение общаться с призраками. Впрочем, мертвецы - не главная опасность, куда хуже - глупые взрослые с дробовиками наперевес.
Рейтинг:
MPAA: - Рекомендуется присутствие родителей
Бюджет: $60 000 000
Сборы в США: $55 879 910
Сборы в России: $3 107 738
Сборы в мире: $99 073 599

Мировая премьера: 3 августа 2012
Релиз на DVD: 13 декабря 2012, «Двадцатый Век Фокс СНГ»
Релиз на Blu-ray: 13 декабря 2012, «Двадцатый Век Фокс СНГ»
Качество: BDRip [BDRip 720p]
Формат: mp4
Видео: 800x336, 23.976 fps, XviD ~1000 kbps avg, 0.36 bit/pixel
Аудио: 48 kHz, AAC, 2 ch, ~128 kbps
Субтитры: Отсутствуют
Фильм был снят с использованием камеры Canon 5D Mark II. Для создания 3D-эффектов камера была установлена на специальное устройство, которое позволяло после первого кадра смещать камеру в другую точку съемки, чтобы сделать второй.
Кинокомпания Laika использовала 3D-принтеры для создания всех выражений лиц необходимых для персонажей.
В течение последних нескольких недель до выхода фильма на экраны, компания Laika отправила 49 пакетов 49 людям (среди них Нил Гейман и Кевин Смит). В каждом пакете был деревянный ящик от Блайта Холлоу полный «могильной земли», которую получателям приходилось раскапывать, чтобы достать гроб. В гробу был один из семи проклятых зомби, в комплекте с брошюрой содержащей имя и справочную информацию.
За исключением Джаджа Хопкинса семь проклятых зомби не называются по имени, но у них есть имена: вышеупомянутый Джадж Хопкинс, Эбен Хадвик, Таддеус Блэктон, Лемуль Сполдинг, Амелия Уилкот, Гуди Темпер и Уил Лондон.


Format                           : MPEG-4
Format profile                   : Base Media
Codec ID                         : isom
File size                        : 747 MiB
Duration                         : 1h 32mn
Overall bit rate mode            : Variable
Overall bit rate                 : 1 132 Kbps
Encoded date                     : UTC 2012-12-07 14:02:14
Tagged date                      : UTC 2012-12-07 14:02:14

Video
ID                               : 1
Format                           : AVC
Format/Info                      : Advanced Video Codec
Format profile                   : <a href="mailto:[email protected]" class="postLink">[email protected]</a>
Format settings, CABAC           : Yes
Format settings, ReFrames        : 6 frames
Codec ID                         : avc1
Codec ID/Info                    : Advanced Video Coding
Duration                         : 1h 32mn
Bit rate                         : 1 000 Kbps
Maximum bit rate                 : 6 315 Kbps
Width                            : 800 pixels
Height                           : 336 pixels
Display aspect ratio             : 2.40:1
Frame rate mode                  : Constant
Frame rate                       : 23.976 fps
Color space                      : YUV
Chroma subsampling               : 4:2:0
Bit depth                        : 8 bits
Scan type                        : Progressive
Bits/(Pixel*Frame)               : 0.155
Stream size                      : 660 MiB (88%)
Writing library                  : x264 core 125 r2200 999b753
Encoding settings                : cabac=1 / ref=6 / deblock=1:0:0 / analyse=0x3:0x110 / me=umh / subme=9 / psy=1 / psy_rd=1.00:0.00 / mixed_ref=1 / me_range=24 / chroma_me=1 / trellis=1 / 8x8dct=1 / cqm=0 / deadzone=21,11 / fast_pskip=0 / chroma_qp_offset=-2 / threads=6 / lookahead_threads=1 / sliced_threads=0 / nr=0 / decimate=1 / interlaced=0 / bluray_compat=0 / constrained_intra=0 / bframes=6 / b_pyramid=2 / b_adapt=2 / b_bias=0 / direct=3 / weightb=0 / open_gop=0 / weightp=2 / keyint=250 / keyint_min=23 / scenecut=40 / intra_refresh=0 / rc_lookahead=40 / rc=2pass / mbtree=1 / bitrate=1000 / ratetol=1.0 / qcomp=0.60 / qpmin=0 / qpmax=69 / qpstep=4 / cplxblur=20.0 / qblur=0.5 / ip_ratio=1.40 / aq=1:1.00
Encoded date                     : UTC 2012-12-07 14:02:14
Tagged date                      : UTC 2012-12-07 14:02:31

Audio
ID                               : 2
Format                           : AAC
Format/Info                      : Advanced Audio Codec
Format profile                   : LC
Codec ID                         : 40
Duration                         : 1h 32mn
Bit rate mode                    : Variable
Bit rate                         : 128 Kbps
Maximum bit rate                 : 137 Kbps
Channel(s)                       : 2 channels
Channel positions                : Front: L R
Sampling rate                    : 48.0 KHz
Compression mode                 : Lossy
Stream size                      : 84.4 MiB (11%)
Encoded date                     : UTC 2012-12-07 14:02:24
Tagged date                      : UTC 2012-12-07 14:02:31


Трекер:  [ 24-Дек-2012 12:39 ]

  

Скачать .torrent

Размер .torrent файла 15 KB


Размер: 747 MB
Хэш (hash) релиза: 147c30d782efc8ce19742807f5ca6b576c3fc4b8

Торренты, похожие на [MULT] Паранорман, или Как приручить зомби ParaNorman скачать торрент

Форум Название Автор Размер S L Добавлен
Видео (Фильмы/Клипы) ·· [MULT] Паранорман, или Как приручить зомби / ParaNorman (Крис Батлер / Chris Butler, Сэм Фелл / Sam Fell) [2012, мультфильм, ужасы, фэнтези, BDRip] [MP4, 640x] Galfimbul 643529077614 MB 0 0 1356341940

12:39

24-Дек-12

Еще никто не оставлял запись к записи скачать торрент [MULT] Паранорман, или Как приручить зомби ParaNorman . Будь первым!

!Обратная связь