Solo: A Star Wars Story | Vol.1 chapter 127.5 : The victor has been decided! Part 2 | Open Source Starter Guide for IBM i Developers

Скачать через торрент [SERIAL] Морской патруль Sea Patrol бесплатно русская версия torrent активатор

Статистика раздачи
Размер:  2.29 GB   |    Зарегистрирован:  5 лет 6 месяцев   |    .torrent скачан:  39 раз   |   
Раздают:  1  
   
загрузка...
 
Автор Сообщение

Galfimbul

avatar Galfimbul


Морской патруль / Sea Patrol

Год выпуска: 2007
Страна: Австралия
Жанр: Драма
Продолжительность: ~45 минут/серия
Перевод: Профессиональный (многоголосый, закадровый)
Русские субтитры: нет
Режиссер: Martin-Jones Chris
В ролях: Batchelor John, Burmeister Saskia, Holmes Matthew, Lawson Josh, Lyons David, McCune Lisa, Ryan Jay, Schmid Kristian, Stenlake Ian, Lindsay Taylor Jeremy, Bisley Steve, Budd Sibylla, O'Neill Morgan, Harper Tye, Stollery Chris, Nation Steve, Garvey Damien, Munt Melanie, Lo Gary, Tso Haven, Clemments Ben
Описание: Их много, они разные, но они - команда. Команда, каждый член которой, не задумываясь, бросится на помощь товарищу - а ситуаций, когда это действительно необходимо, хоть отбавляй. Само собой, не обходится и без недоразумений - не все легко притираются друг к другу. Но задачи, которые им приходится решать каждый день - от незаконной рыбной ловли до торговли наркотиками и людьми - не оставляют времени зацикливаться на этом. Знакомьтесь, перед вами - морской патруль, гордость военно-морских сил. Люди, которым не страшно доверить свою жизнь.
1. Добро пожаловать на борт / Welcome aboard
2. Скрытое от глаз / What lies beneath
3. Призрак прошлого / Ghost of things past
4. Ируканджи / Irukandji
5. На радаре / Under the radar
6. Драгоценный груз / Precious cargo
7. Спасите меня / Rescue me
8. Через шторм / Through the storm
9. Под молотом / Under the hammer
10. Ремонтные работы / Damage control
11. Испорченный телефон / Chinese whispers
12. Глубина / Deep water
13. Час расплаты / Cometh the hour

Качество: HDTVRip
Формат: MP4
Видео кодек: XviD
Аудио кодек: AAC
Видео: XviD 480x280 25fps 460Kbps
Аудио: AAC LC Stereo 48KHz 128Kbps
GeneralComplete name : /home/kvabox/downloads/Sea.Patrol.PDArip/Sea.Patrol.s01e01.mp4Format : MPEG-4Format profile : Base Media / Version 2Codec ID : mp42File size : 188 MiBDuration : 44mn 23sOverall bit rate : 591 KbpsEncoded date : UTC 2012-09-24 17:24:27Tagged date : UTC 2012-09-24 17:24:27

VideoID : 201Format : MPEG-4 VisualFormat profile : Advanced [email protected] settings, BVOP : NoFormat settings, QPel : NoFormat settings, GMC : No warppointsFormat settings, Matrix : Default (H.263)Codec ID : 20Duration : 44mn 23sBit rate mode : VariableBit rate : 460 KbpsMaximum bit rate : 1 117 KbpsWidth : 480 pixelsHeight : 280 pixelsDisplay aspect ratio : 16:9Frame rate mode : VariableFrame rate : 24.959 fpsOriginal frame rate : 25.000 fpsMinimum frame rate : 2.778 fpsMaximum frame rate : 25.000 fpsColor space : YUVChroma subsampling : 4:2:0Bit depth : 8 bitsScan type : ProgressiveCompression mode : LossyBits/(Pixel*Frame) : 0.137Stream size : 146 MiB (78%)Title : Imported with GPAC 0.4.6-DEV (build 1)Writing library : XviD 1.2.1 (UTC 2008-12-04)Encoded date : UTC 2012-09-24 17:24:27Tagged date : UTC 2012-09-24 17:24:36

AudioID : 101Format : AACFormat/Info : Advanced Audio CodecFormat profile : LCCodec ID : 40Duration : 44mn 23sBit rate mode : VariableBit rate : 128 KbpsMaximum bit rate : 145 KbpsChannel(s) : 2 channelsChannel positions : Front: L RSampling rate : 48.0 KHzCompression mode : LossyStream size : 40.6 MiB (22%)Encoded date : UTC 2012-09-24 17:24:35Tagged date : UTC 2012-09-24 17:24:36
Пожалуйста не уходите с раздачи сразу после скачивания.

Трекер:  [ 24-Дек-2012 12:36 ]

  

Скачать .torrent

Размер .torrent файла 47 KB


Размер: 2.29 GB
Хэш (hash) релиза: 2b81aff504bd5b26d8efc19ded16fc911da53f80

Еще никто не оставлял запись к записи скачать торрент [SERIAL] Морской патруль Sea Patrol . Будь первым!

!Обратная связь