LEGENDARY: Making Of A K-Pop Star | Cars Motorcycles | The Last Witness

Скачать через торрент [SERIAL] Подозреваемый Person of Interest бесплатно русская версия torrent активатор

Статистика раздачи
Размер:  4.07 GB   |    Зарегистрирован:  5 лет 6 месяцев   |    .torrent скачан:  58 раз   |   
Раздают:  1  
   
загрузка...
 
Автор Сообщение

Galfimbul

avatar Galfimbul


Подозреваемый / Person of Interest

Год выпуска: 2011

Страна: США
Жанр: Драма, Триллер
Продолжительность: 00:43:00
Перевод: Профессиональный (многоголосый, закадровый)
Русские субтитры: нет
Режиссер: David Semel, Richard J. Lewis, Steven DePaul, Charles Beeson, Colin Bucksey, Dennis Smith,
В ролях: Jim Caviezel, Kevin Chapman, Michael Emerson, Taraji P. Henson, Anthony Mangano и др.
Описание: Сюжет вертится вокруг главного героя — хитроумного миллиардера, который изобрел способ вычислять людей, намеревающихся совершить какое-либо преступление.
Качество: HDTVRip
Формат: MP4
Видео кодек: H.264
Аудио кодек: AAC
Видео: MPEG4 Video (H264); 480x272 (16:9); 449 kbps; 24.00fps
Аудио: AAC 44100Hz stereo 126 kbps
ОбщееПолное имя : ...\Person of Interest [season 1, 480x272, mp4]\Person.of.Interest.S01E01.mp4Формат : MPEG-4Профиль формата : Base Media / Version 2Идентификатор кодека : mp42Размер файла : 182 МбайтПродолжительность : 43 м.Режим общего битрейта : ПеременныйОбщий поток : 581 Кбит/секДата кодирования : UTC 2012-12-04 18:55:42Дата пометки : UTC 2012-12-04 18:55:43Программа кодирования : mp4creator 1.4.4

ВидеоИдентификатор : 1Формат : AVCФормат/Информация : Advanced Video CodecПрофиль формата : <a href="mailto:[email protected]Параметр" class="postLink">[email protected]Параметр</a> CABAC формата : НетПараметр ReFrames формата : 2 кадраИдентификатор кодека : avc1Идентификатор кодека/Информация : Advanced Video CodingПродолжительность : 43 м.Вид битрейта : ПеременныйБитрейт : 453 Кбит/секШирина : 480 пикселейВысота : 272 пикселяСоотношение сторон : 16:9Режим частоты кадров : ПостоянныйЧастота кадров : 24,000 кадра/секЦветовое пространство : YUVСубдискретизация насыщенности : 4:2:0Битовая глубина : 8 битТип развёртки : ПрогрессивнаяБит/(Пиксели*Кадры) : 0.145Размер потока : 142 Мбайт (78%)Язык : EnglishДата кодирования : UTC 2012-12-04 18:55:42Дата пометки : UTC 2012-12-04 18:55:43

АудиоИдентификатор : 2Формат : AACФормат/Информация : Advanced Audio CodecПрофиль формата : LCИдентификатор кодека : 40Продолжительность : 43 м.Продолжительность оригинала : 43 м.Вид битрейта : ПеременныйБитрейт : 126 Кбит/секМаксимальный битрейт : 191 Кбит/секКаналы : 2 каналаРасположение каналов : Front: L RЧастота : 44,1 КГцМетод сжатия : С потерямиРазмер потока : 39,4 Мбайт (22%)Размер потока оригинала : 39,4 Мбайт (22%)Язык : EnglishДата кодирования : UTC 2012-12-04 18:55:43Дата пометки : UTC 2012-12-04 18:55:43
1. Пилот (Pilot)
2. Призраки (Ghosts)
3. Перепостановка задачи (Mission Creep)
4. Исцели себя сам (Cura Te Ipsum)
5. Правосудие (Judgment)
6. Исправление (The Fix)
7. Свидетель (Witness)
8. Недруг (Foe)
9. Убрать Картер (Get Carter)
10. Обвал номеров (Number Crunch)
11. Смотритель (Super)
12. Наследие (Legacy)
13. Вызов Рут (Root Cause)
14. Волк и волчонок (Wolf and Cub)
15. Круговая порука (Blue Code)
16. Риск (Risk)
17. Малышка (Baby Blue)
18. Кризис личности (Identity Crisis)
19. Плоть и кровь (Flesh and Blood)
20. Рыбий закон (Matsya Nyaya)
21. Долгих лет жизни (Many Happy Returns)
22. Нехорошее дело (No Good Deed)
23. Барьер (Firewall)
Не забываем нажать на "Спасибо"!

Трекер:  [ 24-Дек-2012 12:35 ]

  

Скачать .torrent

Размер .torrent файла 12 KB


Размер: 4.07 GB
Хэш (hash) релиза: f52b89007e2b3b1603d57376ea78a9af853bbf0e

Торренты, похожие на [SERIAL] Подозреваемый Person of Interest скачать торрент

Форум Название Автор Размер S L Добавлен
Видео (Фильмы/Клипы) ·· [SERIAL] Подозреваемый / Объект интереса / Person of Interest [Полный 1 сезон + 2 сезон, серии 1-18(?)] (Дэвид Семел, Ричард Дж. Льюис) [2011, драма,криминал, HDTVRip] [3GP, 320x] Galfimbul 60547499095.64 GB 0 0 1417543610

21:06

2-Дек-14

Еще никто не оставлял запись к записи скачать торрент [SERIAL] Подозреваемый Person of Interest . Будь первым!

!Обратная связь