3 Avengers: Infinity War 2018 | Prinzessin Lillifee | Sobrenatural HDTV

Скачать через торрент [VIDEO] Правосудие для всех ...And Justice for All бесплатно русская версия torrent активатор

Статистика раздачи
Размер:  1.01 GB   |    Зарегистрирован:  5 лет 6 месяцев   |    .torrent скачан:  31 раз   |   
Раздают:  1  
   
загрузка...
 
Автор Сообщение

Galfimbul

avatar Galfimbul


Правосудие для всех / ...And Justice for All

Год выпуска: 1979

Страна: США
Жанр: триллер, драма, криминал
Продолжительность: 01:59:04
Перевод: Профессиональный (полное дублирование, со вставками закадрового) | СССР
Русские субтитры: нет

Режиссер: Норман Джуисон / Norman Jewison

В ролях: Аль Пачино, Джек Уорден, Джон Форсайт, Ли Страсберг, Джефри Тэмбор, Кристин Лахти, Сэм Ливин

Описание: Правосудие бесплатное, просто судьи нынче дорогие… В этом не раз успел убедиться адвокат-идеалист Артур Кёрклэнд, который настойчиво борется за справедливость и "правосудие для всех". К сожалению, его усилия оказываются напрасными. Из-за юридической формальности садится в тюрьму невиновный человек, другой клиент героя по уши вязнет в сфабрикованном против него деле. В довершение ко всему, именно Артуру выпадает неприятный долг защищать судью Флеминга от обвинений в изнасиловании. Это дело он и рад был бы проиграть, но, провалив защиту, герой изменил бы своим принципам. Однако, его принципиальность очень скоро начинает трещать по швам, когда Кёрклэнд узнает, что Флеминг виновен как сам грех!
Качество: BDRip
Формат: MP4
Видео кодек: XviD
Аудио кодек: AAC
Видео: XviD, 640x360, 16:9, 1 080 Kbps, 23.976 fps
Аудио: AAC, 128 Kbps, 48.0 KHz, 2 ch.
GeneralComplete name : D:\!РИПЫ\Новая папка\And Justice for All (1979).mp4Format : MPEG-4Format profile : Base Media / Version 2Codec ID : mp42File size : 1.01 GiBDuration : 1h 59mnOverall bit rate mode : VariableOverall bit rate : 1 210 KbpsEncoded date : UTC 2012-12-03 22:04:21Tagged date : UTC 2012-12-03 22:04:21

VideoID : 201Format : MPEG-4 VisualFormat profile : Advanced [email protected] settings, BVOP : NoFormat settings, QPel : NoFormat settings, GMC : No warppointsFormat settings, Matrix : Default (H.263)Codec ID : 20Duration : 1h 59mnBit rate mode : VariableBit rate : 1 080 KbpsMaximum bit rate : 6 945 KbpsWidth : 640 pixelsHeight : 360 pixelsDisplay aspect ratio : 16:9Frame rate mode : VariableFrame rate : 23.976 fpsMinimum frame rate : 0.615 fpsMaximum frame rate : 23.976 fpsColor space : YUVChroma subsampling : 4:2:0Bit depth : 8 bitsScan type : ProgressiveCompression mode : LossyBits/(Pixel*Frame) : 0.196Stream size : 919 MiB (89%)Writing library : XviD 1.2.1 (UTC 2008-12-04)Encoded date : UTC 2012-12-03 22:04:21Tagged date : UTC 2012-12-03 22:05:11

AudioID : 101Format : AACFormat/Info : Advanced Audio CodecFormat profile : LCCodec ID : 40Duration : 1h 59mnBit rate mode : VariableBit rate : 128 KbpsMaximum bit rate : 201 KbpsChannel(s) : 2 channelsChannel positions : Front: L RSampling rate : 48.0 KHzCompression mode : LossyStream size : 109 MiB (11%)Encoded date : UTC 2012-12-03 22:05:10Tagged date : UTC 2012-12-03 22:05:11



Трекер:  [ 22-Дек-2012 13:10 ]

  

Скачать .torrent

Размер .torrent файла 10 KB


Размер: 1.01 GB
Хэш (hash) релиза: 6f8986ad47c043a08b2a3100c032e51f53051f81

Еще никто не оставлял запись к записи скачать торрент [VIDEO] Правосудие для всех ...And Justice for All . Будь первым!

!Обратная связь