ПОДПИСАТЬСЯ НА ВСЕ РАЗДЕЛЫ | Our Cartoon President | Amores Canibales

Скачать через торрент [VIDEO] Ангел-А Angel-A бесплатно русская версия torrent активатор

Статистика раздачи
Размер:  784 MB   |    Зарегистрирован:  5 лет 7 месяцев   |    .torrent скачан:  46 раз   |   
Раздают:  1  
   
загрузка...
 
Автор Сообщение

Galfimbul

avatar Galfimbul


Ангел-А / Angel-A

Год выпуска: 2005

Страна: Франция
Жанр: фэнтези, комедия, мелодрама
Продолжительность: 01:30:38
Перевод: Профессиональный (полное дублирование)
Русские субтитры: нет

Режиссер: Люк Бессон / Luc Besson

В ролях: Жамель Деббуз, Ри Расмуссен, Жильбер Мелки, Серж Риабукин, Аким Шир, Эрик Балье, Луи Пора, Венус Бун, Жером Жесдон, Мишель Белло и др.

Описание: 28-летний Андре должен десятки тысяч евро различным бандитам по всему Парижу. Когда подходит срок расплаты, он понимает, что шансов расплатиться — нет. И в полиции, и в американском посольстве ему отказывают в помощи. Но вот, решив покончить с собой, он видит на мосту сногсшибательную красотку в очень маленьком черном платье, которая прыгает в Сену. Андре бросается за ней. Спасенная девушка обещает помочь Андре во всем: она придумывает удивительные способы добывать деньги и помогает решить проблемы с кредиторами. Но тут Андре начинает задаваться вопросом — почему эта восхитительная девушка так старается ради него?
Качество: BDRip
Формат: MP4
Видео кодек: XviD
Аудио кодек: AAC
Видео: XviD, 640x272, 2.35:1, 1 080 Kbps, 24.000 fps,
Аудио: AAC, 128 Kbps, 48.0 KHz, 2 ch.
GeneralComplete name : D:\!РИПЫ\Новая папка\Angel-A (2005).mp4Format : MPEG-4Format profile : Base Media / Version 2Codec ID : mp42File size : 784 MiBDuration : 1h 30mnOverall bit rate mode : VariableOverall bit rate : 1 210 KbpsEncoded date : UTC 2012-12-04 02:01:41Tagged date : UTC 2012-12-04 02:01:41

VideoID : 201Format : MPEG-4 VisualFormat profile : Advanced [email protected] settings, BVOP : NoFormat settings, QPel : NoFormat settings, GMC : No warppointsFormat settings, Matrix : Default (H.263)Codec ID : 20Duration : 1h 30mnBit rate mode : VariableBit rate : 1 080 KbpsMaximum bit rate : 7 943 KbpsWidth : 640 pixelsHeight : 272 pixelsDisplay aspect ratio : 2.35:1Frame rate mode : VariableFrame rate : 23.879 fpsOriginal frame rate : 24.000 fpsMinimum frame rate : 0.214 fpsMaximum frame rate : 24.000 fpsColor space : YUVChroma subsampling : 4:2:0Bit depth : 8 bitsScan type : ProgressiveCompression mode : LossyBits/(Pixel*Frame) : 0.260Stream size : 700 MiB (89%)Writing library : XviD 1.2.1 (UTC 2008-12-04)Encoded date : UTC 2012-12-04 02:01:41Tagged date : UTC 2012-12-04 02:02:15

AudioID : 101Format : AACFormat/Info : Advanced Audio CodecFormat profile : LCCodec ID : 40Duration : 1h 30mnBit rate mode : VariableBit rate : 128 KbpsMaximum bit rate : 154 KbpsChannel(s) : 2 channelsChannel positions : Front: L RSampling rate : 48.0 KHzCompression mode : LossyStream size : 82.9 MiB (11%)Encoded date : UTC 2012-12-04 02:02:13Tagged date : UTC 2012-12-04 02:02:15



Трекер:  [ 22-Дек-2012 13:10 ]

  

Скачать .torrent

Размер .torrent файла 16 KB


Размер: 784 MB
Хэш (hash) релиза: ae121b350ab7337ca89246590745b3843727ea35

Еще никто не оставлял запись к записи скачать торрент [VIDEO] Ангел-А Angel-A . Будь первым!

!Обратная связь