Episodes | Bigg Boss (2018) Malayalam - EP 5 - 720p - HDTV - x264 - AAC - MovCr | 1 Night 2 Days S3 Ep.208

Скачать через торрент [VIDEO] Кокаин Blow бесплатно русская версия torrent активатор

Статистика раздачи
Размер:  1.04 GB   |    Зарегистрирован:  5 лет 6 месяцев   |    .torrent скачан:  49 раз   |   
Раздают:  1  
   
загрузка...
 
Автор Сообщение

Galfimbul

avatar Galfimbul


Кокаин / Blow

Год выпуска: 2001

Страна: США
Жанр: драма, криминал, биография
Продолжительность: 02:03:26
Перевод: Профессиональный (полное дублирование)
Русские субтитры: нет

Режиссер: Тед Демми / Ted Demme

В ролях: Джонни Депп / Johnny Depp, Пенелопа Круз / Penelope Cruz, Франка Потенте / Franka Potente, Рэйчел Гриффитс / Rachel Griffiths, Рэй Лиотта / Ray Liotta,Пол Рубенс / Paul Reubens, Джорди Молла / Jordi Molla, Клифф Кертис / Cliff Curtis, Мигель Сандоваль / Miguel Sandoval, Итан Сапли / Ethan Suplee

Описание: Эта история, в которой все крутится вокруг наркотиков, секса и безудержных вечеринок. В ней рассказывается о переходе от невинности к цинизму, от марихуаны к кокаину. И это очень личная история, потому что расцвет Пабло Эскабара, Джорджа Джанга и торговли кокаином затронул очень многих известных людей. Джордж Джанг, обыкновенный парень из пригорода, решил осуществить американскую мечту своим способом – стать первым американцем, импортирующим кокаин в больших объемах. Он создал себе рынок сбыта, подсадив на кокаин самых знаменитых людей Америки. Вскоре он уже купался в деньгах и роскоши, о которых многие только мечтают. Ему удавалось обводить вокруг пальца не только ФБР, но и страшных колумбийских наркодельцов. Однако настоящий кайф он получал от опасности и риска, нуждаясь в адреналине больше чем в наркотиках.
Качество: BDRip
Формат: MP4
Видео кодек: XviD
Аудио кодек: AAC
Видео: XviD, 640x272, 2.35:1, 1 080 Kbps, 23.976 fps
Аудио: AAC, 128 Kbps, 48.0 KHz, 2 ch.
GeneralComplete name : D:\!РИПЫ\Новая папка\Blow (2001).mp4Format : MPEG-4Format profile : Base Media / Version 2Codec ID : mp42File size : 1.04 GiBDuration : 2h 3mnOverall bit rate mode : VariableOverall bit rate : 1 210 KbpsEncoded date : UTC 2012-12-03 06:07:56Tagged date : UTC 2012-12-03 06:07:56

VideoID : 201Format : MPEG-4 VisualFormat profile : Advanced [email protected] settings, BVOP : NoFormat settings, QPel : NoFormat settings, GMC : No warppointsFormat settings, Matrix : Default (H.263)Codec ID : 20Duration : 2h 3mnBit rate mode : VariableBit rate : 1 080 KbpsMaximum bit rate : 5 976 KbpsWidth : 640 pixelsHeight : 272 pixelsDisplay aspect ratio : 2.35:1Frame rate mode : VariableFrame rate : 23.915 fpsOriginal frame rate : 23.976 fpsMinimum frame rate : 0.307 fpsMaximum frame rate : 23.976 fpsColor space : YUVChroma subsampling : 4:2:0Bit depth : 8 bitsScan type : ProgressiveCompression mode : LossyBits/(Pixel*Frame) : 0.259Stream size : 953 MiB (89%)Writing library : XviD 1.2.1 (UTC 2008-12-04)Encoded date : UTC 2012-12-03 06:07:56Tagged date : UTC 2012-12-03 06:08:38

AudioID : 101Format : AACFormat/Info : Advanced Audio CodecFormat profile : LCCodec ID : 40Duration : 2h 2mnBit rate mode : VariableBit rate : 128 KbpsMaximum bit rate : 149 KbpsChannel(s) : 2 channelsChannel positions : Front: L RSampling rate : 48.0 KHzCompression mode : LossyStream size : 112 MiB (11%)Encoded date : UTC 2012-12-03 06:08:34Tagged date : UTC 2012-12-03 06:08:38



Трекер:  [ 22-Дек-2012 13:09 ]

  

Скачать .torrent

Размер .torrent файла 11 KB


Размер: 1.04 GB
Хэш (hash) релиза: ba53db9bbca1c71e5bf99cd6875826b17bae7990

Еще никто не оставлял запись к записи скачать торрент [VIDEO] Кокаин Blow . Будь первым!

!Обратная связь