Download mp3 | Herbert Rudley | Watch movie

Скачать через торрент [VIDEO] Реквием по мечте Requiem for a Dream бесплатно русская версия torrent активатор

Статистика раздачи
Размер:  878 MB   |    Зарегистрирован:  5 лет 6 месяцев   |    .torrent скачан:  43 раза   |   
Раздают:  1  
   
загрузка...
 
Автор Сообщение

Galfimbul

avatar Galfimbul


Реквием по мечте / Requiem for a Dream

Год выпуска: 2000

Страна: США
Жанр: Драма
Продолжительность: 01:41:25
Перевод: Профессиональный (полное дублирование)
Русские субтитры: нет

Режиссер: Даррен Аронофски / Darren Aronofsky

В ролях: Эллен Бёрстин, Джаред Лето, Дженнифер Коннелли, Марлон Уайанс, Кристофер Макдоналд

Описание: Главные герои — мать и сын, Сара и Гарри Голдфарб, подружка Гарри Мэрион Силвер и друг Гарри Тайрон Лав. Действие в фильме разворачивается на протяжении трёх времен года: летом, осенью и зимой. На протяжении этого времени жизни четырёх героев стремительно и жестоко рушатся.
Качество: BDRip
Формат: MP4
Видео кодек: XviD
Аудио кодек: AAC
Видео: XviD, 640x344, 1.85:1, 1 080 Kbps, 23.976 fps
Аудио: AAC, 128 Kbps, 48.0 KHz, 2 ch.
GeneralComplete name : D:\!РИПЫ\Новая папка\Requiem for a Dream (2000).mp4Format : MPEG-4Format profile : Base Media / Version 2Codec ID : mp42File size : 878 MiBDuration : 1h 41mnOverall bit rate mode : VariableOverall bit rate : 1 210 KbpsEncoded date : UTC 2012-12-03 12:55:05Tagged date : UTC 2012-12-03 12:55:05

VideoID : 201Format : MPEG-4 VisualFormat profile : Advanced [email protected] settings, BVOP : NoFormat settings, QPel : NoFormat settings, GMC : No warppointsFormat settings, Matrix : Default (H.263)Codec ID : 20Duration : 1h 41mnBit rate mode : VariableBit rate : 1 080 KbpsMaximum bit rate : 4 460 KbpsWidth : 640 pixelsHeight : 344 pixelsDisplay aspect ratio : 1.85:1Frame rate mode : VariableFrame rate : 23.901 fpsOriginal frame rate : 23.976 fpsMinimum frame rate : 0.245 fpsMaximum frame rate : 23.976 fpsColor space : YUVChroma subsampling : 4:2:0Bit depth : 8 bitsScan type : ProgressiveCompression mode : LossyBits/(Pixel*Frame) : 0.205Stream size : 783 MiB (89%)Writing library : XviD 1.2.1 (UTC 2008-12-04)Encoded date : UTC 2012-12-03 12:55:05Tagged date : UTC 2012-12-03 12:56:18

AudioID : 101Format : AACFormat/Info : Advanced Audio CodecFormat profile : LCCodec ID : 40Duration : 1h 41mnBit rate mode : VariableBit rate : 127 KbpsMaximum bit rate : 151 KbpsChannel(s) : 2 channelsChannel positions : Front: L RSampling rate : 48.0 KHzCompression mode : LossyStream size : 92.5 MiB (11%)Encoded date : UTC 2012-12-03 12:56:15Tagged date : UTC 2012-12-03 12:56:18



Трекер:  [ 22-Дек-2012 13:09 ]

  

Скачать .torrent

Размер .torrent файла 17 KB


Размер: 878 MB
Хэш (hash) релиза: 8c327c0657990cbeeed88cfa157ada19f8536c5d

Еще никто не оставлял запись к записи скачать торрент [VIDEO] Реквием по мечте Requiem for a Dream . Будь первым!

!Обратная связь