IObit Driver Booster PRO 5.5.1.844 Final (2018) PC | RePack Portable by TryRooM | El Infinito BluRay MicroHD | Aur Devdas (2018) (HD)

Скачать через торрент [VIDEO] Кокни против зомби Cockneys vs Zombies бесплатно русская версия torrent активатор

Статистика раздачи
Размер:  765 MB   |    Зарегистрирован:  5 лет 6 месяцев   |    .torrent скачан:  33 раза   |   
Раздают:  1  
   
загрузка...
 
Автор Сообщение

Galfimbul

avatar Galfimbul


Кокни против зомби / Cockneys vs Zombies

Год выпуска: 2012

Страна: Великобритания
Жанр: ужасы, комедия
Продолжительность: 01:28:23
Перевод: Любительский (двухголосый)
Русские субтитры: нет

Режиссер: Матиас Хёне / Matthias Hoene

В ролях: Джорджия Кинг, Онор Блэкман, Мишель Райан, Крис Соммервиль, Ли Асквит-Коу, Алан Форд, Тони Гарднер, Фордхэм Сьюзэн, Гарри Тредэвэй, Ричард Брирс

Описание: Строители находят древнюю могилу и выпускают в современный Лондон вирус, который обычные трупы превращает в ходячие и поедающие живых. Ещё одна проблема - дом престарелых "Бубенчики" сносят под новое строительство, а у главных героев там живет любимый дедушка с друзьями. Как оставить дом престарелых на месте? Очень просто! Выкупить землю! А где взять деньги? И внуки решают ограбить банк! Забавное месиво сюжетов таких картин, как "Зомби по имени Шон" и "Карты, деньги, два ствола"!!!
Качество: BDRip
Формат: MP4
Видео кодек: XviD
Аудио кодек: AAC
Видео: XviD, 640x272, 2.35:1, 1 080 Kbps, 24.000 fps
Аудио: AAC, 128 Kbps, 48.0 KHz, 2 ch.
GeneralComplete name : D:\!РИПЫ\Новая папка\Cockneys vs Zombies (2012).mp4Format : MPEG-4Format profile : Base Media / Version 2Codec ID : mp42File size : 765 MiBDuration : 1h 28mnOverall bit rate mode : VariableOverall bit rate : 1 210 KbpsEncoded date : UTC 2012-12-04 12:27:09Tagged date : UTC 2012-12-04 12:27:09

VideoID : 201Format : MPEG-4 VisualFormat profile : Advanced [email protected] settings, BVOP : NoFormat settings, QPel : NoFormat settings, GMC : No warppointsFormat settings, Matrix : Default (H.263)Codec ID : 20Duration : 1h 28mnBit rate mode : VariableBit rate : 1 080 KbpsMaximum bit rate : 4 819 KbpsWidth : 640 pixelsHeight : 272 pixelsDisplay aspect ratio : 2.35:1Frame rate mode : VariableFrame rate : 23.976 fpsOriginal frame rate : 24.000 fpsMinimum frame rate : 0.923 fpsMaximum frame rate : 24.000 fpsColor space : YUVChroma subsampling : 4:2:0Bit depth : 8 bitsScan type : ProgressiveCompression mode : LossyBits/(Pixel*Frame) : 0.259Stream size : 682 MiB (89%)Writing library : XviD 1.2.1 (UTC 2008-12-04)Encoded date : UTC 2012-12-04 12:27:09Tagged date : UTC 2012-12-04 12:28:12

AudioID : 101Format : AACFormat/Info : Advanced Audio CodecFormat profile : LCCodec ID : 40Duration : 1h 28mnBit rate mode : VariableBit rate : 128 KbpsMaximum bit rate : 218 KbpsChannel(s) : 2 channelsChannel positions : Front: L RSampling rate : 48.0 KHzCompression mode : LossyStream size : 80.9 MiB (11%)Encoded date : UTC 2012-12-04 12:28:10Tagged date : UTC 2012-12-04 12:28:12



Трекер:  [ 22-Дек-2012 13:09 ]

  

Скачать .torrent

Размер .torrent файла 15 KB


Размер: 765 MB
Хэш (hash) релиза: 22de95e679f3cf7b0e6ab2617ee2debfe849b699

Еще никто не оставлял запись к записи скачать торрент [VIDEO] Кокни против зомби Cockneys vs Zombies . Будь первым!

!Обратная связь