And Then There Were None | Райан Филипп | Underground

Скачать через торрент [SERIAL] Дикий-3 Серии 1-8 из 32 бесплатно русская версия torrent активатор

Статистика раздачи
Размер:  5.55 GB   |    Зарегистрирован:  5 лет 6 месяцев   |    .torrent скачан:  29 раз   |   
Раздают:  1  
   
загрузка...
 
Автор Сообщение

Galfimbul

avatar Galfimbul


Дикий-3

Год выпуска: 2012
Страна: Россия, "Студия Анкор" по заказу НТВ
Жанр: Боевик, Криминал
Продолжительность: ~ 00:46:00/серия
Перевод: Не требуется
Русские субтитры: нет
Режиссер: Артём Мазунов
В ролях: Игорь Лифанов, Мария Баева, Артём Мазунов, Игорь Поселенов, Дмитрий Грачев (II), Дмитрий Митюрич, Александр Кудинов, Павел Костик, Олег Масленников-Войтов, Наталья Тетенова, Галина Анисимова (II), Олег Филипчик, Борис Покровский, Филипп Васильев, Сергей Пиоро, Максим Артамонов, Максим Туранцев, Антон Шурцов, Виталий Кулаков, Алена Ныркова, Михаил Хмуров, Юлия Майборода, Олег Гущин, Антон Колесников, Дмитрий Исаев, Игорь Миркурбанов, Александр Носик, Азиз Бейшеналиев, Лилия Мэй, Олег Васильков, Владимир Стержаков, Павел Сметанкин, Иван Агапов, Сергей Быстрицкий, Александр Кузнецов, Михаил Водзуми, Вадим Медведев (II), Александр Лойе, Илья Хвостиков, Дмитрий Артаев, Владимир Малков
Описание: На НТВ - премьера третьего сезона самого дикого сериала с одноименным названием! Создатели обещают, что будет дико смешно, дико опасно и дико интересно! Ведь любимого зрителями героя - Дикого - ждут новое звание, новая любовь и новая служба!
Всё начинается с того, что оперуполномоченный Александр Диченко он же - Дикий - начинает охоту на банду беспредельщиков, которая занимается отстрелом якобы не чистых на руку полицейских. Бандиты захватывают отделение полиции, берут заложников, тяжело ранив при этом бывшего сослуживца Дикого... Разоблачение этой преступной группировки и станет последним делом Дикого в Вышнегорске.
Вскоре он приезжает в Москву на похороны своего бывшего начальника Василича, который был жестоко убит накануне. В последнее время Василич руководил специальным отделом ГУВД, который занимался особо тяжкими преступлениями. В этот отдел со всего города "сбрасывали" наиболее сложные дела (как правило, стопроцентные "висяки")... И работали в этом отделе, как на подбор, наиболее опытные опера...
Качество: SATRip

Формат: MP4
Видео кодек: H.264
Аудио кодек: AAC
Видео: H.264 480x240 Constrained <a href="mailto:[email protected]" class="postLink">[email protected]</a> 25fps 460Kbps 0.160 b/pf
Аудио: AAC LC Stereo ~96Kbps
1-я и 2-я серии. "Присяжные заседатели"
3-я и 4-я серии. "Дом, милый дом"
5-я и 6-я серии. "Свингермания"
7-я и 8-я серии. "Мусор" против мусора"
9-я и 10-я серии. "Фальшивомонетчики"
11-я и 12-я серии. "Гастармафия"
13-я и 14-я серии. "Без тормозов
15-я и 16-я серии. "Ищу тебя"
GeneralComplete name : /home/kvabox/downloads/Bre.avi/Dikiy3.(01).2012.satrip-1.m4vFormat : MPEG-4Format profile : Base Media / Version 2Codec ID : mp42File size : 184 MiBDuration : 45mn 55sOverall bit rate : 559 KbpsEncoded date : UTC 2012-12-04 02:31:36Tagged date : UTC 2012-12-04 02:53:19Writing application : HandBrake 0.9.8 2012071700

VideoID : 1Format : AVCFormat/Info : Advanced Video CodecFormat profile : <a href="mailto:[email protected]" class="postLink">[email protected]</a> settings, CABAC : NoFormat settings, ReFrames : 2 framesCodec ID : avc1Codec ID/Info : Advanced Video CodingDuration : 45mn 55sBit rate mode : VariableBit rate : 460 KbpsWidth : 480 pixelsHeight : 240 pixelsDisplay aspect ratio : 2.000Frame rate mode : ConstantFrame rate : 25.000 fpsColor space : YUVChroma subsampling : 4:2:0Bit depth : 8 bitsScan type : ProgressiveBits/(Pixel*Frame) : 0.160Stream size : 151 MiB (82%)Writing library : x264 core 120Encoding settings : cabac=0 / ref=2 / deblock=1:0:0 / analyse=0x1:0x111 / me=umh / subme=6 / psy=1 / psy_rd=1.00:0.00 / mixed_ref=1 / me_range=16 / chroma_me=1 / trellis=0 / 8x8dct=0 / cqm=0 / deadzone=21,11 / fast_pskip=1 / chroma_qp_offset=-2 / threads=6 / sliced_threads=0 / nr=0 / decimate=1 / interlaced=0 / bluray_compat=0 / constrained_intra=0 / bframes=0 / weightp=0 / keyint=250 / keyint_min=25 / scenecut=40 / intra_refresh=0 / rc_lookahead=40 / rc=2pass / mbtree=1 / bitrate=460 / ratetol=1.0 / qcomp=0.60 / qpmin=3 / qpmax=69 / qpstep=4 / cplxblur=20.0 / qblur=0.5 / ip_ratio=1.40 / aq=1:1.00Encoded date : UTC 2012-12-04 02:31:36Tagged date : UTC 2012-12-04 02:53:19Material_Duration : 2755920Material_StreamSize : 158437618Material_FrameCount : 68898Color primaries : BT.601-6 525, BT.1358 525, BT.1700 NTSC, SMPTE 170MTransfer characteristics : BT.709-5, BT.1361Matrix coefficients : BT.601-6 525, BT.1358 525, BT.1700 NTSC, SMPTE 170M

AudioID : 2Format : AACFormat/Info : Advanced Audio CodecFormat profile : LCCodec ID : 40Duration : 45mn 55sBit rate mode : VariableBit rate : 96.0 KbpsMaximum bit rate : 167 KbpsChannel(s) : 2 channelsChannel positions : Front: L RSampling rate : 48.0 KHzCompression mode : LossyStream size : 31.5 MiB (17%)Encoded date : UTC 2012-12-04 02:31:36Tagged date : UTC 2012-12-04 02:53:18Material_Duration : 2755925Material_StreamSize : 33070919


Трекер:  [ 24-Дек-2012 12:35 ]

  

Скачать .torrent

Размер .torrent файла 15 KB


Размер: 5.55 GB
Хэш (hash) релиза: 56166d0d686d14da11c7c13281a8da860a1dce26

Еще никто не оставлял запись к записи скачать торрент [SERIAL] Дикий-3 Серии 1-8 из 32 . Будь первым!

!Обратная связь