Escape Plan 2: ... | voir Dans un recoin de ce monde gratuitement | Marco Polo

Скачать через торрент [VIDEO] Властелин колец: Кинотрилогия The Lord of the Rings: The Motion Picture Trilogy бесплатно русская версия torrent активатор

Статистика раздачи
Размер:  7.78 GB   |    Зарегистрирован:  5 лет 6 месяцев   |    .torrent скачан:  105 раз   |   
Раздают:  1  
   
загрузка...
 
Автор Сообщение

Galfimbul

avatar Galfimbul



Властелин колец: Братство кольца / The Lord of the Rings: The Fellowship of the Ring (2001) [Extended Edition]

Год выпуска: 2001 || Страна: США, Новая Зеландия || Жанр: фэнтези, боевик, приключения || Продолжительность: 03:48:12

Перевод: Профессиональный (полное дублирование) + вставки многоголосого (Позитив мм) на расширенные места
Сказания о Средиземье — это хроника Великой войны за Кольцо, войны, длившейся не одну тысячу лет. Тот, кто владел Кольцом, получал власть над всеми живыми тварями, но был обязан служить злу. Тихая деревня, где живут хоббиты.
Волшебник Гэндальф, придя на 111-й день рождения к своему старому другу Бильбо Бэггинсу, начинает вести разговор о кольце, которое Бильбо нашел много лет назад. Это кольцо принадлежало когда-то темному властителю Средиземья Саурону, и оно дает большую власть своему обладателю.
Теперь Саурон хочет вернуть себе власть над Средиземьем. Бильбо отдает найденное кольцо своему племяннику Фродо, который пытается научиться справляться с тем страшным могуществом, которое дает ему кольцо…


Качество: BDRip || Энкод оригинала: [NiP] [1920x1080] || Хардсаб: да || Формат: mp4
Видео: x264, 800x336, 1400 Kbps, 23.976 fps, 0.217 bit/pixel || Аудио: Russian, AAC, 48000 Hz, 128 Kbps, 2ch

Format                                   : MPEG-4
Format profile                           : Base Media
Codec ID                                 : isom
File size                                : 2.44 GiB
Duration                                 : 3h 48mn
Overall bit rate mode                    : Variable
Overall bit rate                         : 1 533 Kbps
Encoded date                             : UTC 2012-11-25 23:26:59
Tagged date                              : UTC 2012-12-03 22:09:44
Copyright                                : Mangaku
Cover                                    : Yes
Comment                                  : by RG Mobile
tvsn                                     : 0
tves                                     : 0
hdvd                                     : 0
stik                                     : 9
cnID                                     : 0

Video
ID                                       : 1
Format                                   : AVC
Format/Info                              : Advanced Video Codec
Format profile                           : <a href="mailto:[email protected]" class="postLink">[email protected]</a>
Format settings, CABAC                   : No
Format settings, ReFrames                : 4 frames
Codec ID                                 : avc1
Codec ID/Info                            : Advanced Video Coding
Duration                                 : 3h 48mn
Bit rate                                 : 1 400 Kbps
Maximum bit rate                         : 7 983 Kbps
Width                                    : 800 pixels
Height                                   : 336 pixels
Display aspect ratio                     : 2.40:1
Frame rate mode                          : Constant
Frame rate                               : 23.976 fps
Color space                              : YUV
Chroma subsampling                       : 4:2:0
Bit depth                                : 8 bits
Scan type                                : Progressive
Bits/(Pixel*Frame)                       : 0.217
Stream size                              : 2.23 GiB (91%)
Writing library                          : x264 core 125 r2208 d9d2288
Encoding settings                        : cabac=0 / ref=4 / deblock=1:0:0 / analyse=0x1:0x111 / me=umh / subme=9 / psy=1 / psy_rd=1.00:0.00 / mixed_ref=1 / me_range=16 / chroma_me=1 / trellis=0 / 8x8dct=0 / cqm=0 / deadzone=21,11 / fast_pskip=0 / chroma_qp_offset=-2 / threads=12 / lookahead_threads=2 / sliced_threads=0 / nr=0 / decimate=1 / interlaced=0 / bluray_compat=0 / constrained_intra=0 / bframes=0 / weightp=0 / keyint=250 / keyint_min=23 / scenecut=40 / intra_refresh=0 / rc_lookahead=40 / rc=2pass / mbtree=1 / bitrate=1400 / ratetol=1.0 / qcomp=0.60 / qpmin=3 / qpmax=51 / qpstep=4 / cplxblur=20.0 / qblur=0.5 / ip_ratio=1.40 / aq=1:0.60
Encoded date                             : UTC 2012-11-25 23:26:59
Tagged date                              : UTC 2012-11-25 23:28:12

Audio
ID                                       : 2
Format                                   : AAC
Format/Info                              : Advanced Audio Codec
Format profile                           : LC
Codec ID                                 : 40
Duration                                 : 3h 48mn
Bit rate mode                            : Variable
Bit rate                                 : 128 Kbps
Maximum bit rate                         : 198 Kbps
Channel(s)                               : 2 channels
Channel positions                        : Front: L R
Sampling rate                            : 48.0 KHz
Compression mode                         : Lossy
Stream size                              : 209 MiB (8%)
Encoded date                             : UTC 2012-11-25 23:27:59
Tagged date                              : UTC 2012-11-25 23:28:12
Ссылка на исходник
Complete name                    : The.Lord.of.the.Rings-The Fellowship.of.the.Ring.2001.Blu-ray.Extended.1080p.x264-NiP.Rus.Eng.mkv
Format                           : Matroska
File size                        : 27.4 GiB
Duration                         : 3h 48mn
Overall bit rate                 : 17.2 Mbps
Movie name                       : HANSMER
Encoded date                     : UTC 2011-09-03 16:10:40
Writing application              : mkvmerge v4.9.1 ('Ich will') сборка от Jul 11 2011 23:53:15
Writing library                  : libebml v1.2.1 + libmatroska v1.1.1
Cover                            : Yes / Yes / Yes
Video
ID                               : 1
Format                           : AVC
Format/Info                      : Advanced Video Codec
Format profile                   : <a href="mailto:[email protected]" class="postLink">[email protected]</a>
Format settings, CABAC           : Yes
Format settings, ReFrames        : 5 frames
Codec ID                         : V_MPEG4/ISO/AVC
Duration                         : 3h 48mn
Nominal bit rate                 : 13.5 Mbps
Width                            : 1 920 pixels
Height                           : 800 pixels
Display aspect ratio             : 2.40:1
Frame rate                       : 23.976 fps
Color space                      : YUV
Chroma subsampling               : 4:2:0
Bit depth                        : 8 bits
Scan type                        : Progressive
Bits/(Pixel*Frame)               : 0.367
Title                            : The.Lord.of.the.Rings-The Fellowship.of.the.Ring.2001.Blu-ray.Extended.1080p.x264-NiP
Writing library                  : x264 core 116 r2044kMod 392e762
Encoding settings                : cabac=1 / ref=5 / deblock=1:-3:-3 / analyse=0x3:0x113 / me=esa / subme=11 / psy=1 / fade_compensate=0.00 / psy_rd=1.20:0.00 / mixed_ref=1 / me_range=32 / chroma_me=1 / trellis=2 / 8x8dct=1 / cqm=0 / deadzone=21,11 / fast_pskip=0 / chroma_qp_offset=-2 / threads=12 / sliced_threads=0 / nr=0 / decimate=0 / interlaced=0 / bluray_compat=0 / constrained_intra=0 / bframes=10 / b_pyramid=2 / b_adapt=2 / b_bias=0 / direct=3 / weightb=1 / open_gop=0 / weightp=2 / keyint=250 / keyint_min=23 / scenecut=40 / intra_refresh=0 / rc_lookahead=80 / rc=2pass / mbtree=0 / bitrate=13500 / ratetol=1.0 / qcomp=0.60 / qpmin=0 / qpmax=69 / qpstep=4 / cplxblur=20.0 / qblur=0.5 / vbv_maxrate=50000 / vbv_bufsize=62500 / nal_hrd=none / ip_ratio=1.40 / pb_ratio=1.30 / aq=3:0.90 / zones=288580,328248,b=0.5
Language                         : English
Matrix coefficients              : BT.709-5, BT.1361, IEC 61966-2-4 709, SMPTE RP177
Audio #1
ID                               : 2
Format                           : DTS
Format/Info                      : Digital Theater Systems
Format profile                   : ES
Codec ID                         : A_DTS
Duration                         : 3h 48mn
Bit rate mode                    : Constant
Bit rate                         : 1 510 Kbps
Channel(s)                       : 7 channels / 6 channels
Channel positions                : Front: L C R, Side: L R, Back: C, LFE / Front: L C R, Side: L R, LFE
Sampling rate                    : 48.0 KHz
Bit depth                        : 24 bits
Compression mode                 : Lossy
Stream size                      : 2.41 GiB (9%)
Title                            : Pozitiv MM
Language                         : Russian
Audio #2
ID                               : 3
Format                           : AC-3
Format/Info                      : Audio Coding 3
Mode extension                   : CM (complete main)
Codec ID                         : A_AC3
Duration                         : 3h 48mn
Bit rate mode                    : Constant
Bit rate                         : 448 Kbps
Channel(s)                       : 6 channels
Channel positions                : Front: L C R, Side: L R, LFE
Sampling rate                    : 48.0 KHz
Bit depth                        : 16 bits
Compression mode                 : Lossy
Stream size                      : 731 MiB (3%)
Title                            : Dub + Pozitiv MM
Language                         : Russian
Audio #3
ID                               : 4
Format                           : DTS
Format/Info                      : Digital Theater Systems
Format profile                   : ES
Codec ID                         : A_DTS
Duration                         : 3h 48mn
Bit rate mode                    : Constant
Bit rate                         : 1 510 Kbps
Channel(s)                       : 7 channels / 6 channels
Channel positions                : Front: L C R, Side: L R, Back: C, LFE / Front: L C R, Side: L R, LFE
Sampling rate                    : 48.0 KHz
Bit depth                        : 24 bits
Compression mode                 : Lossy
Stream size                      : 2.41 GiB (9%)
Language                         : English
Audio #4
ID                               : 5
Format                           : AAC
Format/Info                      : Advanced Audio Codec
Format profile                   : HE-AAC / LC
Codec ID                         : A_AAC
Duration                         : 3h 48mn
Channel(s)                       : 2 channels
Channel positions                : Front: L R
Sampling rate                    : 48.0 KHz / 24.0 KHz
Compression mode                 : Lossy
Title                            : Commentary with Director & Writers
Language                         : English
Audio #5
ID                               : 6
Format                           : AAC
Format/Info                      : Advanced Audio Codec
Format profile                   : HE-AAC / LC
Codec ID                         : A_AAC
Duration                         : 3h 48mn
Channel(s)                       : 2 channels
Channel positions                : Front: L R
Sampling rate                    : 48.0 KHz / 24.0 KHz
Compression mode                 : Lossy
Title                            : Commentary with Design Team
Language                         : English
Audio #6
ID                               : 7
Format                           : AAC
Format/Info                      : Advanced Audio Codec
Format profile                   : HE-AAC / LC
Codec ID                         : A_AAC
Duration                         : 3h 48mn
Channel(s)                       : 2 channels
Channel positions                : Front: L R
Sampling rate                    : 48.0 KHz / 24.0 KHz
Compression mode                 : Lossy
Title                            : Commentary with Production and Post Production
Language                         : English
Audio #7
ID                               : 8
Format                           : AAC
Format/Info                      : Advanced Audio Codec
Format profile                   : HE-AAC / LC
Codec ID                         : A_AAC
Duration                         : 3h 48mn
Channel(s)                       : 2 channels
Channel positions                : Front: L R
Sampling rate                    : 48.0 KHz / 24.0 KHz
Compression mode                 : Lossy
Title                            : Commentary with Cast
Language                         : English
Text #1
ID                               : 9
Format                           : ASS
Codec ID                         : S_TEXT/ASS
Codec ID/Info                    : Advanced Sub Station Alpha
Compression mode                 : Lossless
Title                            : Forced Pozitiv MM
Language                         : Russian
Text #2
ID                               : 10
Format                           : UTF-8
Codec ID                         : S_TEXT/UTF8
Codec ID/Info                    : UTF-8 Plain Text
Title                            : Pozitiv MM
Language                         : Russian
Text #3
ID                               : 11
Format                           : UTF-8
Codec ID                         : S_TEXT/UTF8
Codec ID/Info                    : UTF-8 Plain Text
Title                            : Henneth-annun
Language                         : Russian
Text #4
ID                               : 12
Format                           : UTF-8
Codec ID                         : S_TEXT/UTF8
Codec ID/Info                    : UTF-8 Plain Text
Language                         : Ukrainian
Text #5
ID                               : 13
Format                           : ASS
Codec ID                         : S_TEXT/ASS
Codec ID/Info                    : Advanced Sub Station Alpha
Compression mode                 : Lossless
Title                            : Forced
Language                         : English
Text #6
ID                               : 14
Format                           : ASS
Codec ID                         : S_TEXT/ASS
Codec ID/Info                    : Advanced Sub Station Alpha
Compression mode                 : Lossless
Language                         : English
Menu
00:00:00.000                     : en: 1. Prologue: One Ring To Rule Them All...
00:07:36.790                     : en: 2. Concerning Hobbits
00:10:35.552                     : en: 3. The Shire
00:15:39.856                     : en: 4. Very Old Friends
00:19:58.489                     : en: 5. A Long-expected Party
00:25:32.614                     : en: 6. Farewell Dear Bilbo
00:29:57.379                     : en: 7. Keep It Secret, Keep It Safe
00:32:10.679                     : en: 8. The Account Of Isildur
00:34:51.798                     : en: 9. At The Green Dragon
00:36:18.176                     : en:10. The Shadow of the Past
00:45:04.160                     : en:11. The Passing of the Elves
00:46:44.301                     : en:12. Saruman The White
00:51:21.412                     : en:13. A Short Cut to Mushrooms
00:55:12.434                     : en:14. Bucklebury Ferry
00:57:30.072                     : en:15. At the Sign of The Prancing Pony
01:03:31.516                     : en:16. The Nazgul
01:07:16.115                     : en:17. The Midgewater Marshes
01:08:53.588                     : en:18. The Spoiling Of Isengard
01:10:35.940                     : en:19. A Knife in the Dark
01:15:15.386                     : en:20. The Caverns of Isengard
01:17:46.620                     : en:21. Flight to the Ford
01:24:11.546                     : en:22. Rivendell
01:26:12.501                     : en:23. Many Meetings
01:29:41.585                     : en:24. The Fate of the Ring
01:33:14.672                     : en:25. The Sword That Was Broken
01:35:54.082                     : en:26. The Evenstar
01:37:32.972                     : en:27. The Council of Elrond
01:45:38.400                     : en:28. Gilraen's Memorial
01:46:53.226                     : en:29. Bilbo's Gifts
01:48:36.621                     : en:30. The Departure of the Fellowship
01:49:54.031                     : en:31. The Ring Goes South
01:52:59.842                     : en:32. The Pass of Caradhras
01:57:46.128                     : en:33. Moria
02:04:11.513                     : en:34. A Journey in the Dark
02:10:41.861                     : en:35. Balin's Tomb
02:20:06.592                     : en:36. The Bridge of Khazad-Dum
02:29:48.048                     : en:37. Lothlorien
02:33:00.699                     : en:38. Caras Galadhorn
02:40:17.719                     : en:39. The Mirror of Galadriel
02:45:57.725                     : en:40. The Fighting Uruk-Hai
02:47:39.076                     : en:41. Farewell to Lorien
02:53:01.607                     : en:42. The Great River
02:57:53.857                     : en:43. Parth Galen
03:04:21.619                     : en:44. The Breaking of the Fellowship
03:11:37.555                     : en:45. The Departure of Boromir
03:14:19.884                     : en:46. The Road Goes Ever On
03:20:38.053                     : en:47. Credits
03:28:18.555                     : en:48. Official Fan Club Credits



Властелин колец: Две крепости / The Lord of the Rings: The Two Towers (2002) [Extended Edition]

Год выпуска: 2002 || Страна: США, Новая Зеландия || Жанр: фэнтези, боевик, приключения || Продолжительность: 03:55:25

Перевод: Профессиональный (полное дублирование) + вставки многоголосого (Позитив мм) на расширенные места
Братство распалось, но Кольцо Всевластья должно быть уничтожено. Фродо и Сэм вынуждены доверить свои жизни Голлуму, который взялся провести их к вратам Мордора. Громадная Армия Сарумана приближается: члены братства и их союзники готовы принять бой. Битва за Средиземье продолжается.


Качество: BDRip || Энкод оригинала: [NiP] [1920x1080] || Хардсаб: да || Формат: mp4
Видео: x264, 800x336, 1400 Kbps, 23.976 fps, 0.217 bit/pixel || Аудио: Russian, AAC, 48000 Hz, 128 Kbps, 2ch

Format                                   : MPEG-4
Format profile                           : Base Media
Codec ID                                 : isom
File size                                : 2.52 GiB
Duration                                 : 3h 55mn
Overall bit rate mode                    : Variable
Overall bit rate                         : 1 533 Kbps
Encoded date                             : UTC 2012-11-24 22:11:43
Tagged date                              : UTC 2012-12-03 22:09:44
Copyright                                : Mangaku
Cover                                    : Yes
Comment                                  : by RG Mobile
stik                                     : 9

Video
ID                                       : 1
Format                                   : AVC
Format/Info                              : Advanced Video Codec
Format profile                           : <a href="mailto:[email protected]" class="postLink">[email protected]</a>
Format settings, CABAC                   : No
Format settings, ReFrames                : 4 frames
Codec ID                                 : avc1
Codec ID/Info                            : Advanced Video Coding
Duration                                 : 3h 55mn
Bit rate                                 : 1 400 Kbps
Maximum bit rate                         : 6 801 Kbps
Width                                    : 800 pixels
Height                                   : 336 pixels
Display aspect ratio                     : 2.40:1
Frame rate mode                          : Constant
Frame rate                               : 23.976 fps
Color space                              : YUV
Chroma subsampling                       : 4:2:0
Bit depth                                : 8 bits
Scan type                                : Progressive
Bits/(Pixel*Frame)                       : 0.217
Stream size                              : 2.30 GiB (91%)
Writing library                          : x264 core 125 r2208 d9d2288
Encoding settings                        : cabac=0 / ref=4 / deblock=1:0:0 / analyse=0x1:0x111 / me=umh / subme=9 / psy=1 / psy_rd=1.00:0.00 / mixed_ref=1 / me_range=16 / chroma_me=1 / trellis=0 / 8x8dct=0 / cqm=0 / deadzone=21,11 / fast_pskip=0 / chroma_qp_offset=-2 / threads=12 / lookahead_threads=2 / sliced_threads=0 / nr=0 / decimate=1 / interlaced=0 / bluray_compat=0 / constrained_intra=0 / bframes=0 / weightp=0 / keyint=250 / keyint_min=23 / scenecut=40 / intra_refresh=0 / rc_lookahead=40 / rc=2pass / mbtree=1 / bitrate=1400 / ratetol=1.0 / qcomp=0.60 / qpmin=3 / qpmax=51 / qpstep=4 / cplxblur=20.0 / qblur=0.5 / ip_ratio=1.40 / aq=1:0.60
Encoded date                             : UTC 2012-11-24 22:11:43
Tagged date                              : UTC 2012-11-24 22:13:13

Audio
ID                                       : 2
Format                                   : AAC
Format/Info                              : Advanced Audio Codec
Format profile                           : LC
Codec ID                                 : 40
Duration                                 : 3h 55mn
Bit rate mode                            : Variable
Bit rate                                 : 128 Kbps
Maximum bit rate                         : 195 Kbps
Channel(s)                               : 2 channels
Channel positions                        : Front: L R
Sampling rate                            : 48.0 KHz
Compression mode                         : Lossy
Stream size                              : 215 MiB (8%)
Encoded date                             : UTC 2012-11-24 22:12:58
Tagged date                              : UTC 2012-11-24 22:13:13
Ссылка на исходник
Complete name                    : The.Lord.of.the.Rings-The.Two.Towers.2002.Blu-ray.Extended.1080p.x264-NiP.Rus.Eng.mkv
Format                           : Matroska
File size                        : 30.8 GiB
Duration                         : 3h 55mn
Overall bit rate                 : 18.7 Mbps
Movie name                       : HANSMER
Encoded date                     : UTC 2011-09-03 23:39:07
Writing application              : mkvmerge v4.9.1 ('Ich will') сборка от Jul 11 2011 23:53:15
Writing library                  : libebml v1.2.1 + libmatroska v1.1.1
Cover                            : Yes / Yes / Yes
Video
ID                               : 1
Format                           : AVC
Format/Info                      : Advanced Video Codec
Format profile                   : <a href="mailto:[email protected]" class="postLink">[email protected]</a>
Format settings, CABAC           : Yes
Format settings, ReFrames        : 5 frames
Codec ID                         : V_MPEG4/ISO/AVC
Duration                         : 3h 55mn
Nominal bit rate                 : 15.0 Mbps
Width                            : 1 910 pixels
Height                           : 800 pixels
Display aspect ratio             : 2.35:1
Frame rate                       : 23.976 fps
Color space                      : YUV
Chroma subsampling               : 4:2:0
Bit depth                        : 8 bits
Scan type                        : Progressive
Bits/(Pixel*Frame)               : 0.409
Title                            : The.Lord.of.the.Rings-The.Two.Towers.2002.Blu-ray.Extended.1080p.x264-NiP
Writing library                  : x264 core 116 r2044kMod 392e762
Encoding settings                : cabac=1 / ref=5 / deblock=1:-3:-3 / analyse=0x3:0x113 / me=esa / subme=11 / psy=1 / fade_compensate=0.00 / psy_rd=1.20:0.00 / mixed_ref=1 / me_range=32 / chroma_me=1 / trellis=2 / 8x8dct=1 / cqm=0 / deadzone=21,11 / fast_pskip=0 / chroma_qp_offset=-2 / threads=12 / sliced_threads=0 / nr=0 / decimate=0 / interlaced=0 / bluray_compat=0 / constrained_intra=0 / bframes=11 / b_pyramid=2 / b_adapt=2 / b_bias=0 / direct=3 / weightb=1 / open_gop=0 / weightp=2 / keyint=250 / keyint_min=23 / scenecut=40 / intra_refresh=0 / rc_lookahead=80 / rc=2pass / mbtree=0 / bitrate=15000 / ratetol=1.0 / qcomp=0.60 / qpmin=0 / qpmax=69 / qpstep=4 / cplxblur=20.0 / qblur=0.5 / vbv_maxrate=50000 / vbv_bufsize=62500 / nal_hrd=none / ip_ratio=1.40 / pb_ratio=1.30 / aq=3:1.00 / zones=309000,338639,b=0.5
Language                         : English
Matrix coefficients              : BT.709-5, BT.1361, IEC 61966-2-4 709, SMPTE RP177
Audio #1
ID                               : 2
Format                           : DTS
Format/Info                      : Digital Theater Systems
Format profile                   : ES
Codec ID                         : A_DTS
Duration                         : 3h 55mn
Bit rate mode                    : Constant
Bit rate                         : 1 510 Kbps
Channel(s)                       : 7 channels / 6 channels
Channel positions                : Front: L C R, Side: L R, Back: C, LFE / Front: L C R, Side: L R, LFE
Sampling rate                    : 48.0 KHz
Bit depth                        : 24 bits
Compression mode                 : Lossy
Stream size                      : 2.48 GiB (8%)
Title                            : Pozitiv MM
Language                         : Russian
Audio #2
ID                               : 3
Format                           : AC-3
Format/Info                      : Audio Coding 3
Mode extension                   : CM (complete main)
Codec ID                         : A_AC3
Duration                         : 3h 55mn
Bit rate mode                    : Constant
Bit rate                         : 448 Kbps
Channel(s)                       : 6 channels
Channel positions                : Front: L C R, Side: L R, LFE
Sampling rate                    : 48.0 KHz
Bit depth                        : 16 bits
Compression mode                 : Lossy
Stream size                      : 754 MiB (2%)
Title                            : Dub + Pozitiv MM
Language                         : Russian
Audio #3
ID                               : 4
Format                           : DTS
Format/Info                      : Digital Theater Systems
Format profile                   : ES
Codec ID                         : A_DTS
Duration                         : 3h 55mn
Bit rate mode                    : Constant
Bit rate                         : 1 510 Kbps
Channel(s)                       : 7 channels / 6 channels
Channel positions                : Front: L C R, Side: L R, Back: C, LFE / Front: L C R, Side: L R, LFE
Sampling rate                    : 48.0 KHz
Bit depth                        : 24 bits
Compression mode                 : Lossy
Stream size                      : 2.48 GiB (8%)
Language                         : English
Audio #4
ID                               : 5
Format                           : AAC
Format/Info                      : Advanced Audio Codec
Format profile                   : HE-AAC / LC
Codec ID                         : A_AAC
Duration                         : 3h 55mn
Channel(s)                       : 2 channels
Channel positions                : Front: L R
Sampling rate                    : 48.0 KHz / 24.0 KHz
Compression mode                 : Lossy
Title                            : Commentary with Director & Writers
Language                         : English
Audio #5
ID                               : 6
Format                           : AAC
Format/Info                      : Advanced Audio Codec
Format profile                   : HE-AAC / LC
Codec ID                         : A_AAC
Duration                         : 3h 55mn
Channel(s)                       : 2 channels
Channel positions                : Front: L R
Sampling rate                    : 48.0 KHz / 24.0 KHz
Compression mode                 : Lossy
Title                            : Commentary with Design Team
Language                         : English
Audio #6
ID                               : 7
Format                           : AAC
Format/Info                      : Advanced Audio Codec
Format profile                   : HE-AAC / LC
Codec ID                         : A_AAC
Duration                         : 3h 55mn
Channel(s)                       : 2 channels
Channel positions                : Front: L R
Sampling rate                    : 48.0 KHz / 24.0 KHz
Compression mode                 : Lossy
Title                            : Commentary with Production and Post Production
Language                         : English
Audio #7
ID                               : 8
Format                           : AAC
Format/Info                      : Advanced Audio Codec
Format profile                   : HE-AAC / LC
Codec ID                         : A_AAC
Duration                         : 3h 55mn
Channel(s)                       : 2 channels
Channel positions                : Front: L R
Sampling rate                    : 48.0 KHz / 24.0 KHz
Compression mode                 : Lossy
Title                            : Commentary with Cast
Language                         : English
Text #1
ID                               : 9
Format                           : ASS
Codec ID                         : S_TEXT/ASS
Codec ID/Info                    : Advanced Sub Station Alpha
Compression mode                 : Lossless
Title                            : Forced Pozitiv MM
Language                         : Russian
Text #2
ID                               : 10
Format                           : UTF-8
Codec ID                         : S_TEXT/UTF8
Codec ID/Info                    : UTF-8 Plain Text
Title                            : Pozitiv MM
Language                         : Russian
Text #3
ID                               : 11
Format                           : UTF-8
Codec ID                         : S_TEXT/UTF8
Codec ID/Info                    : UTF-8 Plain Text
Title                            : Henneth-annun
Language                         : Russian
Text #4
ID                               : 12
Format                           : UTF-8
Codec ID                         : S_TEXT/UTF8
Codec ID/Info                    : UTF-8 Plain Text
Language                         : Ukrainian
Text #5
ID                               : 13
Format                           : ASS
Codec ID                         : S_TEXT/ASS
Codec ID/Info                    : Advanced Sub Station Alpha
Compression mode                 : Lossless
Title                            : Forced
Language                         : English
Text #6
ID                               : 14
Format                           : ASS
Codec ID                         : S_TEXT/ASS
Codec ID/Info                    : Advanced Sub Station Alpha
Compression mode                 : Lossless
Language                         : English
Menu
00:00:00.000                     : en: 1. The Foundations of Stone
00:04:08.748                     : en: 2. Elven Rope
00:06:10.829                     : en: 3. The Taming of Smeagol
00:14:44.967                     : en: 4. The Uruk-hai
00:17:06.609                     : en: 5. The Three Hunters
00:19:17.948                     : en: 6. The Burning of the Westfold
00:23:07.094                     : en: 7. Massacre at the Fords of Isen
00:23:58.312                     : en: 8. The Banishment of omer
00:27:09.044                     : en: 9. On the Trail of the Uruk-hai
00:28:03.181                     : en:10. Night Camp at Fangorn
00:31:38.230                     : en:11. The Riders of Rohan
00:35:45.518                     : en:12. The Fate of Merry and Pippin
00:38:17.879                     : en:13. Treebeard
00:41:47.797                     : en:14. The Passage of the Marshes
00:50:49.755                     : en:15. The White Rider
00:58:19.413                     : en:16. The Song of the Entwives
01:00:40.178                     : en:17. The Heir of Numenor
01:02:48.306                     : en:18. The Black Gate is Closed
01:08:05.999                     : en:19. Ent Draft
01:12:41.732                     : en:20. The King of the Golden Hall
01:24:17.344                     : en:21. The Funeral of Theodred
01:25:41.636                     : en:22. Simbelmyne on the Burial Mounds
01:27:34.332                     : en:23. The King's Decision
01:30:45.523                     : en:24. Brego
01:32:30.587                     : en:25. The Ring of Barahir
01:34:31.040                     : en:26. A Daughter of Kings
01:35:57.043                     : en:27. Exodus from Edoras
01:37:02.316                     : en:28. The Forests of Ithilien
01:38:43.960                     : en:29. Gollum and Smeagol
01:41:14.819                     : en:30. Of Herbs and Stewed Rabbit
01:46:34.200                     : en:31. Dwarf Women
01:47:16.993                     : en:32. One of the Dunedain
01:49:46.851                     : en:33. The Evenstar
01:54:53.407                     : en:34. The Wolves of Isengard
02:01:31.596                     : en:35. Helm's Deep
02:04:11.715                     : en:36. Isengard Unleashed
02:06:48.163                     : en:37. The Grace of the Valar
02:08:25.719                     : en:38. Arwen's Fate
02:12:08.483                     : en:39. The Story Foreseen from Lorien
02:14:34.462                     : en:40. The Window on the West
02:18:24.066                     : en:41. Sons of the Steward
02:23:03.637                     : en:42. The Forbidden Pool
02:30:25.328                     : en:43. Aragorn's Return
02:35:58.578                     : en:44. Entmoot
02:37:18.450                     : en:45. The Glittering Caves
02:40:26.721                     : en:46. "Where Is the Horse and the Rider?"
02:42:11.451                     : en:47. "Don't Be Hasty, Master Meriadoc!"
02:43:02.126                     : en:48. The Host of the Eldar
02:46:36.215                     : en:49. The Batter of the Hornburg
02:52:58.597                     : en:50. Old Entish
02:54:35.652                     : en:51. The Breach of the Deeping Wall
02:58:00.774                     : en:52. The Entmoot Decides
02:59:45.921                     : en:53. The Retreat to the Hornburg
03:05:48.408                     : en:54. Master Peregrin's Plan
03:07:13.493                     : en:55. Osgiliath
03:07:48.236                     : en:56. The Last March of the Ents
03:10:17.760                     : en:57. The Nazgul Attack
03:12:49.745                     : en:58. Forth Eorlingas
03:17:28.232                     : en:59. The Flooding of Isengard
03:19:54.586                     : en:60. The Tales That Really Mattered...
03:24:39.871                     : en:61. Fangorn Comes to Helm's Deep
03:25:31.424                     : en:62. The Final Tally
03:26:12.964                     : en:63. Flotsam and Jetsam
03:28:16.755                     : en:64. Farewell to Faramir
03:30:46.613                     : en:65. "The Battle for Middle-Earth is About to Begin"
03:32:26.296                     : en:66. Gollum's Plan
03:34:50.440                     : en:67. End Credits
03:43:46.725                     : en:68. Fan Club Credits



Властелин колец: Возвращение Короля / The Lord of the Rings: The Return of the King (2003) [Extended Edition]

Год выпуска: 2003 || Страна: США, Новая Зеландия || Жанр: фэнтези, боевик, приключения || Продолжительность: 04:23:11

Перевод: Профессиональный (полное дублирование) + вставки многоголосого (Позитив мм) на расширенные места
Последняя часть трилогии о Кольце Всевластия и о героях, взявших на себя бремя спасения Средиземья. Повелитель сил Тьмы Саурон направляет свои бесчисленные рати под стены Минас-Тирита, крепости Последней Надежды. Он предвкушает близкую победу, но именно это и мешает ему заметить две крохотные фигурки — хоббитов, приближающихся к Роковой Горе, где им предстоит уничтожить Кольцо Всевластия. Улыбнется ли им счастье?


Качество: BDRip || Энкод оригинала: [NiP] [1920x1080] || Хардсаб: да || Формат: mp4
Видео: x264, 800x336, 1400 Kbps, 23.976 fps, 0.217 bit/pixel || Аудио: Russian, AAC, 48000 Hz, 128 Kbps, 2ch

Format                                   : MPEG-4
Format profile                           : Base Media
Codec ID                                 : isom
File size                                : 2.82 GiB
Duration                                 : 4h 23mn
Overall bit rate mode                    : Variable
Overall bit rate                         : 1 533 Kbps
Encoded date                             : UTC 2012-12-03 02:22:59
Tagged date                              : UTC 2012-12-03 22:09:44
Copyright                                : Mangaku
Cover                                    : Yes
Comment                                  : by RG Mobile
stik                                     : 9

Video
ID                                       : 1
Format                                   : AVC
Format/Info                              : Advanced Video Codec
Format profile                           : <a href="mailto:[email protected]" class="postLink">[email protected]</a>
Format settings, CABAC                   : No
Format settings, ReFrames                : 4 frames
Codec ID                                 : avc1
Codec ID/Info                            : Advanced Video Coding
Duration                                 : 4h 23mn
Bit rate                                 : 1 400 Kbps
Maximum bit rate                         : 6 597 Kbps
Width                                    : 800 pixels
Height                                   : 336 pixels
Display aspect ratio                     : 2.40:1
Frame rate mode                          : Constant
Frame rate                               : 23.976 fps
Color space                              : YUV
Chroma subsampling                       : 4:2:0
Bit depth                                : 8 bits
Scan type                                : Progressive
Bits/(Pixel*Frame)                       : 0.217
Stream size                              : 2.57 GiB (91%)
Writing library                          : x264 core 125 r2208 d9d2288
Encoding settings                        : cabac=0 / ref=4 / deblock=1:0:0 / analyse=0x1:0x111 / me=umh / subme=9 / psy=1 / psy_rd=1.00:0.00 / mixed_ref=1 / me_range=16 / chroma_me=1 / trellis=0 / 8x8dct=0 / cqm=0 / deadzone=21,11 / fast_pskip=0 / chroma_qp_offset=-2 / threads=12 / lookahead_threads=2 / sliced_threads=0 / nr=0 / decimate=1 / interlaced=0 / bluray_compat=0 / constrained_intra=0 / bframes=0 / weightp=0 / keyint=250 / keyint_min=23 / scenecut=40 / intra_refresh=0 / rc_lookahead=40 / rc=2pass / mbtree=1 / bitrate=1400 / ratetol=1.0 / qcomp=0.60 / qpmin=3 / qpmax=51 / qpstep=4 / cplxblur=20.0 / qblur=0.5 / ip_ratio=1.40 / aq=1:0.60
Encoded date                             : UTC 2012-12-03 02:22:59
Tagged date                              : UTC 2012-12-03 02:24:17

Audio
ID                                       : 2
Format                                   : AAC
Format/Info                              : Advanced Audio Codec
Format profile                           : LC
Codec ID                                 : 40
Duration                                 : 4h 23mn
Bit rate mode                            : Variable
Bit rate                                 : 128 Kbps
Maximum bit rate                         : 191 Kbps
Channel(s)                               : 2 channels
Channel positions                        : Front: L R
Sampling rate                            : 48.0 KHz
Compression mode                         : Lossy
Stream size                              : 241 MiB (8%)
Encoded date                             : UTC 2012-12-03 02:24:04
Tagged date                              : UTC 2012-12-03 02:24:17
Ссылка на исходник
Complete name                    : The.Lord.of.the.Rings-The.Return.of.the.King.2003.Blu-ray.Extended.1080p.x264-NiP.Rus.Eng.mkv
Format                           : Matroska
File size                        : 38.1 GiB
Duration                         : 4h 23mn
Overall bit rate                 : 20.7 Mbps
Movie name                       : HANSMER
Encoded date                     : UTC 2011-09-04 10:19:53
Writing application              : mkvmerge v4.9.1 ('Ich will') сборка от Jul 11 2011 23:53:15
Writing library                  : libebml v1.2.1 + libmatroska v1.1.1
Cover                            : Yes / Yes / Yes
Video
ID                               : 1
Format                           : AVC
Format/Info                      : Advanced Video Codec
Format profile                   : <a href="mailto:[email protected]" class="postLink">[email protected]</a>
Format settings, CABAC           : Yes
Format settings, ReFrames        : 5 frames
Codec ID                         : V_MPEG4/ISO/AVC
Duration                         : 4h 23mn
Nominal bit rate                 : 17.0 Mbps
Width                            : 1 920 pixels
Height                           : 798 pixels
Display aspect ratio             : 2.40:1
Frame rate                       : 23.976 fps
Color space                      : YUV
Chroma subsampling               : 4:2:0
Bit depth                        : 8 bits
Scan type                        : Progressive
Bits/(Pixel*Frame)               : 0.463
Title                            : The.Lord.of.the.Rings-The.Return.of.the.King.2003.Blu-ray.Extended.1080p.x264-NiP
Writing library                  : x264 core 116 r2044kMod 392e762
Encoding settings                : cabac=1 / ref=5 / deblock=1:-3:-3 / analyse=0x3:0x113 / me=esa / subme=11 / psy=1 / fade_compensate=0.00 / psy_rd=1.20:0.00 / mixed_ref=1 / me_range=32 / chroma_me=1 / trellis=2 / 8x8dct=1 / cqm=0 / deadzone=21,11 / fast_pskip=0 / chroma_qp_offset=-2 / threads=12 / sliced_threads=0 / nr=0 / decimate=0 / interlaced=0 / bluray_compat=0 / constrained_intra=0 / bframes=11 / b_pyramid=2 / b_adapt=2 / b_bias=0 / direct=3 / weightb=1 / open_gop=0 / weightp=2 / keyint=250 / keyint_min=23 / scenecut=40 / intra_refresh=0 / rc_lookahead=80 / rc=2pass / mbtree=0 / bitrate=17000 / ratetol=1.0 / qcomp=0.60 / qpmin=0 / qpmax=69 / qpstep=4 / cplxblur=20.0 / qblur=0.5 / vbv_maxrate=50000 / vbv_bufsize=62500 / nal_hrd=none / ip_ratio=1.40 / pb_ratio=1.30 / aq=3:1.00 / zones=347185,378573,b=0.7
Language                         : English
Matrix coefficients              : BT.709-5, BT.1361, IEC 61966-2-4 709, SMPTE RP177
Audio #1
ID                               : 2
Format                           : DTS
Format/Info                      : Digital Theater Systems
Format profile                   : ES
Codec ID                         : A_DTS
Duration                         : 4h 23mn
Bit rate mode                    : Constant
Bit rate                         : 1 510 Kbps
Channel(s)                       : 7 channels / 6 channels
Channel positions                : Front: L C R, Side: L R, Back: C, LFE / Front: L C R, Side: L R, LFE
Sampling rate                    : 48.0 KHz
Bit depth                        : 24 bits
Compression mode                 : Lossy
Stream size                      : 2.78 GiB (7%)
Title                            : Pozitiv MM
Language                         : Russian
Audio #2
ID                               : 3
Format                           : AC-3
Format/Info                      : Audio Coding 3
Mode extension                   : CM (complete main)
Codec ID                         : A_AC3
Duration                         : 4h 23mn
Bit rate mode                    : Constant
Bit rate                         : 448 Kbps
Channel(s)                       : 6 channels
Channel positions                : Front: L C R, Side: L R, LFE
Sampling rate                    : 48.0 KHz
Bit depth                        : 16 bits
Compression mode                 : Lossy
Stream size                      : 843 MiB (2%)
Title                            : Dub + Pozitiv MM
Language                         : Russian
Audio #3
ID                               : 4
Format                           : DTS
Format/Info                      : Digital Theater Systems
Format profile                   : ES
Codec ID                         : A_DTS
Duration                         : 4h 23mn
Bit rate mode                    : Constant
Bit rate                         : 1 510 Kbps
Channel(s)                       : 7 channels / 6 channels
Channel positions                : Front: L C R, Side: L R, Back: C, LFE / Front: L C R, Side: L R, LFE
Sampling rate                    : 48.0 KHz
Bit depth                        : 24 bits
Compression mode                 : Lossy
Stream size                      : 2.78 GiB (7%)
Language                         : English
Audio #4
ID                               : 5
Format                           : AAC
Format/Info                      : Advanced Audio Codec
Format profile                   : HE-AAC / LC
Codec ID                         : A_AAC
Duration                         : 4h 23mn
Channel(s)                       : 2 channels
Channel positions                : Front: L R
Sampling rate                    : 48.0 KHz / 24.0 KHz
Compression mode                 : Lossy
Title                            : Commentary with Director & Writers
Language                         : English
Audio #5
ID                               : 6
Format                           : AAC
Format/Info                      : Advanced Audio Codec
Format profile                   : HE-AAC / LC
Codec ID                         : A_AAC
Duration                         : 4h 23mn
Channel(s)                       : 2 channels
Channel positions                : Front: L R
Sampling rate                    : 48.0 KHz / 24.0 KHz
Compression mode                 : Lossy
Title                            : Commentary with Design Team
Language                         : English
Audio #6
ID                               : 7
Format                           : AAC
Format/Info                      : Advanced Audio Codec
Format profile                   : HE-AAC / LC
Codec ID                         : A_AAC
Duration                         : 4h 23mn
Channel(s)                       : 2 channels
Channel positions                : Front: L R
Sampling rate                    : 48.0 KHz / 24.0 KHz
Compression mode                 : Lossy
Title                            : Commentary with Production and Post Production
Language                         : English
Audio #7
ID                               : 8
Format                           : AAC
Format/Info                      : Advanced Audio Codec
Format profile                   : HE-AAC / LC
Codec ID                         : A_AAC
Duration                         : 4h 23mn
Channel(s)                       : 2 channels
Channel positions                : Front: L R
Sampling rate                    : 48.0 KHz / 24.0 KHz
Compression mode                 : Lossy
Title                            : Commentary with Cast
Language                         : English
Text #1
ID                               : 9
Format                           : ASS
Codec ID                         : S_TEXT/ASS
Codec ID/Info                    : Advanced Sub Station Alpha
Compression mode                 : Lossless
Title                            : Forced Pozitiv MM
Language                         : Russian
Text #2
ID                               : 10
Format                           : UTF-8
Codec ID                         : S_TEXT/UTF8
Codec ID/Info                    : UTF-8 Plain Text
Title                            : Pozitiv MM
Language                         : Russian
Text #3
ID                               : 11
Format                           : UTF-8
Codec ID                         : S_TEXT/UTF8
Codec ID/Info                    : UTF-8 Plain Text
Title                            : Henneth-annun
Language                         : Russian
Text #4
ID                               : 12
Format                           : UTF-8
Codec ID                         : S_TEXT/UTF8
Codec ID/Info                    : UTF-8 Plain Text
Language                         : Ukrainian
Text #5
ID                               : 13
Format                           : ASS
Codec ID                         : S_TEXT/ASS
Codec ID/Info                    : Advanced Sub Station Alpha
Compression mode                 : Lossless
Title                            : Forced
Language                         : English
Text #6
ID                               : 14
Format                           : ASS
Codec ID                         : S_TEXT/ASS
Codec ID/Info                    : Advanced Sub Station Alpha
Compression mode                 : Lossless
Language                         : English
Menu
00:00:00.000                     : en: 1. The Finding of the Ring
00:06:24.342                     : en: 2. Journey to the Cross-Roads
00:09:21.394                     : en: 3. The Road to Isengard
00:11:21.848                     : en: 4. The Voice of Saruman
00:18:23.311                     : en: 5. Return to Edoras
00:23:05.009                     : en: 6. Gollum's Villany
00:27:03.330                     : en: 7. Eowyn's Dream
00:29:00.697                     : en: 8. The Palantir
00:37:06.433                     : en: 9. Arwen's Vision
00:40:02.567                     : en:10. The Reforging of Narsil
00:42:03.229                     : en:11. Minas Tirith
00:47:52.203                     : en:12. The Decline of Gondor
00:50:18.641                     : en:13. Cross-Roads of the Fallen King
00:52:18.761                     : en:14. "The Deep Breath Before the Plunge"
00:55:35.332                     : en:15. Minas Morgul
00:59:36.406                     : en:16. Sam's Warning
01:00:23.703                     : en:17. Pippin's Task
01:00:50.605                     : en:18. Osgiliath Invaded
01:04:30.075                     : en:19. The Lighting of the Beacons
01:07:16.032                     : en:20. Theoden's Decision
01:10:35.314                     : en:21. The Fall of Osgiliath
01:14:54.824                     : en:22. The Wizard's Pupil
01:17:21.971                     : en:23. The Stairs of Cirith Ungol
01:19:21.799                     : en:24. "Courage Is the Best Defense"
01:20:01.088                     : en:25. Peregrin of the Tower Guard
01:21:26.799                     : en:26. Allegiance to Denethor
01:23:48.941                     : en:27. The Parting of Sam and Frodo
01:29:08.593                     : en:28. The Sacrifice of Faramir
01:33:57.590                     : en:29. Marshalling at Dunharrow
01:38:08.049                     : en:30. Anduril - Flame of the West
01:42:49.705                     : en:31. Aragorn Takes the Paths of the Dead
01:45:34.245                     : en:32. "No More Despair"
01:46:57.453                     : en:33. Dwimorberg - the Haunted Mountain
01:49:24.433                     : en:34. The Muster of Rohan
01:51:09.997                     : en:35. The Paths of the Dead
01:58:39.696                     : en:36. The Siege of Gondor
02:07:35.500                     : en:37. The Corsairs of Umbar
02:08:36.779                     : en:38. Shelob's Lair
02:17:44.451                     : en:39. Merry's Simple Courage
02:19:34.770                     : en:40. Grond - The Hammer of the Underworld
02:20:11.139                     : en:41. The Tomb of the Stewards
02:21:44.775                     : en:42. Breaking the Gate of Gondor
02:22:51.591                     : en:43. The Choices of Master Samwise
02:28:53.328                     : en:44. Denethor's Madness
02:29:58.643                     : en:45. The Witch King's Hour
02:32:23.663                     : en:46. The Ride of the Rohirrim
02:36:38.084                     : en:47. The Pyre of Denethor
02:38:45.169                     : en:48. The Battle of Pelennor Fields
02:43:40.714                     : en:49. "A Far Green Country"
02:45:11.138                     : en:50. The Nazugl and His Prey
02:46:57.077                     : en:51. The Black Ships
02:47:49.504                     : en:52. Shieldmaiden of Rohan
02:48:33.757                     : en:53. Victory at Minas Tirith
02:51:09.454                     : en:54. The Passing of Theoden
02:53:12.160                     : en:55. Oaths Fulfilled
02:54:19.102                     : en:56. The Houses of Healing
02:56:35.113                     : en:57. Pippin Looks After Merry
02:57:27.165                     : en:58. The Tower of Cirith Ungol
03:04:23.080                     : en:59. The Last Debate
03:06:05.433                     : en:60. Aragorn Masters the Palantir
03:07:34.522                     : en:61. The Captain and the White Lady
03:08:24.655                     : en:62. In the Company of Orcs
03:12:06.043                     : en:63. The Land of Shadow
03:16:17.753                     : en:64. The Mouth of Sauron
03:19:33.657                     : en:65. The Black Gate Opens
03:23:07.454                     : en:66. "I Can't Carry It for You... But I Can Carry You"
03:25:20.253                     : en:67. The Last Move
03:26:23.358                     : en:68. Mount Doom
03:28:19.432                     : en:69. "The Eagles Are Coming!"
03:28:53.758                     : en:70. The Crack of Doom
03:34:32.012                     : en:71. Sauron Defeated
03:36:45.396                     : en:72. The End of All Things
03:40:14.396                     : en:73. The Fellowship Reunited
03:42:37.497                     : en:74. The Return of the King
03:47:30.540                     : en:75. Homeward Bound
03:52:12.447                     : en:76. The Grey Havens
04:01:31.047                     : en:77. End Credits
04:12:38.463                     : en:78. Fan Club Credits


Приятного просмотра!


Трекер:  [ 22-Дек-2012 13:02 ]

  

Скачать .torrent

Размер .torrent файла 39 KB


Размер: 7.78 GB
Хэш (hash) релиза: cf63ab6cbd0d60b20ee365a80eaa81075382ed40

Еще никто не оставлял запись к записи скачать торрент [VIDEO] Властелин колец: Кинотрилогия The Lord of the Rings: The Motion Picture Trilogy . Будь первым!

!Обратная связь