Watch Movie | Regarder un film | Safe.1995.720p.BluRay.x264-x0r

Скачать через торрент [SERIAL] Крайние меры Отчаянные меры бесплатно русская версия torrent активатор

Статистика раздачи
Размер:  1.74 GB   |    Зарегистрирован:  5 лет 7 месяцев   |    .torrent скачан:  34 раза   |   
Раздают:  1  
   
загрузка...
 
Автор Сообщение

Galfimbul

avatar Galfimbul


Крайние меры / Отчаянные меры / Last Resort

Год выпуска: 2012

Страна: США
Жанр: боевик, триллер, драма, детектив
Продолжительность: 00:44:00
Перевод: Профессиональный (многоголосый, закадровый)
Русские субтитры: нет
Режиссер: Мартин Кэмпбелл, Кевин Хукс
В ролях: Андре Брауэр, Отем Ризер, Скотт Спидмэн, Дэйзи Беттс, Камиль де Паззис, Дэниэл Лиссинг, Сар Нгойя и другие...
Описание: Американская ядерная подлодка последнего поколения «Колорадо» по экстренному каналу связи получает приказ выпустить боевую ракету на пакистанскую столицу. Капитан Чаплин не готов к уничтожению 4 млн человек и требует подтверждения приказа со стороны высшего руководства страны. За неисполнение приказа военное руководство отстраняет капитана от управления субмариной и передает командование в руки старшего помощника Сэма Кенделла. Кенделл, в свою очередь, так же отказывается выполнить приказ. Военное руководство принимает решение ликвидировать «Колорадо» с соседней подлодки. Однако, заметив приближение ракеты, Чаплин выводит судно из зоны прямого поражения, и, в ответ на высылку двух истребителей-ликвидаторов, запускает крылатую ядерную боеголовку на Вашингтон…
Качество: WEB-DLRip
Формат: MP4
Видео кодек: H.264
Аудио кодек: AAC
Видео: MPEG4 Video (H264); 480x272 (16:9); 449 kbps; 24.00fps
Аудио: AAC 44100Hz stereo 126 kbps
GeneralПолное имя : ...\Last Resort [season 1, 480x272, mp4]\Last.Resort.S01E01.mp4Формат : MPEG-4Профиль формата : Base Media / Version 2Идентификатор кодека : mp42Размер файла : 184 MiBПродолжительность : 44mn 48sРежим общего битрейта : VariableОбщий поток : 573 KbpsДата кодирования : UTC 2012-10-17 01:03:37Дата пометки : UTC 2012-10-17 01:03:38Программа кодирования : mp4creator 1.4.4

VideoИдентификатор : 1Формат : AVCФормат/Информация : Advanced Video CodecПрофиль формата : <a href="mailto:[email protected]Параметр" class="postLink">[email protected]Параметр</a> CABAC формата : NoПараметр ReFrames формата : 2 framesИдентификатор кодека : avc1Идентификатор кодека/Информация : Advanced Video CodingПродолжительность : 44mn 48sВид битрейта : VariableБитрейт : 447 KbpsШирина : 480 pixelsВысота : 272 pixelsСоотношение сторон : 16:9Режим частоты кадров : ConstantЧастота кадров : 24.000 fpsЦветовое пространство : YUVСубдискретизация насыщенности : 4:2:0Битовая глубина : 8 bitsТип развёртки : ProgressiveБит/(Пиксели*Кадры) : 0.143Размер потока : 143 MiB (78%)Язык : EnglishДата кодирования : UTC 2012-10-17 01:03:37Дата пометки : UTC 2012-10-17 01:03:38

AudioИдентификатор : 2Формат : AACФормат/Информация : Advanced Audio CodecПрофиль формата : LCИдентификатор кодека : 40Продолжительность : 44mn 47sПродолжительность оригинала : 44mn 48sВид битрейта : VariableБитрейт : 124 KbpsМаксимальный битрейт : 263 KbpsКаналы : 2 channelsРасположение каналов : Front: L RЧастота : 44.1 KHzМетод сжатия : LossyРазмер потока : 39.7 MiB (22%)Размер потока оригинала : 39.7 MiB (22%)Язык : EnglishДата кодирования : UTC 2012-10-17 01:03:38Дата пометки : UTC 2012-10-17 01:03:38
01) Капитан (Captain)
02) Огонь по своим (Blue on Blue)
03) Восемь склянок (Eight Bells)
04) Добровольцы поневоле (Voluntold)
05) Неполный экипаж (Skeleton Crew)
06) Ещё один денёк на флоте (Another Fine Navy Day)
07) На грани взрыва (Nuke It Out)
08) Увольнение за недостойное поведение (Big Chicken Dinner)


Трекер:  [ 24-Дек-2012 12:35 ]

  

Скачать .torrent

Размер .torrent файла 18 KB


Размер: 1.74 GB
Хэш (hash) релиза: e056a27ee1e2ed0665cfc8d9631f5e7f39da67b2

Еще никто не оставлял запись к записи скачать торрент [SERIAL] Крайние меры Отчаянные меры . Будь первым!

!Обратная связь