Aventura | Private Message | The Expanse S03E08 1080p WEB H264-DEFLATE[rarbg]

Скачать через торрент [SERIAL] Элементарно Elementary бесплатно русская версия torrent активатор

Статистика раздачи
Размер:  1.76 GB   |    Зарегистрирован:  5 лет 6 месяцев   |    .torrent скачан:  46 раз   |   
Раздают:  1  
   
загрузка...
 
Автор Сообщение

Galfimbul

avatar Galfimbul


Элементарно / Elementary

Год выпуска: 2012

Страна: США
Жанр: Драма/Детектив
Продолжительность: 00:45:00
Перевод: Многоголосый закадровый (LostFilm)
Русские субтитры: нет
Режиссер: Джон Дэвид Коулз, Майкл Куэста
В ролях: Джонни Ли Миллер, Люси Лью, Эйдан Куинн, Даллас Робертс, Мэнни Перез, Джонатан Уолкер, Кристен Буш, Крэйг Уолкер, Майкл Натансон, Randal Turner
Описание: Очередная версия приключений знаменитого сыщика Шерлока Холмса. Герой сэра Артура Конана Дойла переедет из Лондона в Нью-Йорк, променяв викторианскую Англию на современную Америку.
Качество: WEB-DLRip
Формат: MP4
Видео кодек: H.264
Аудио кодек: AAC
Видео: MPEG4 Video (H264); 480x272 (16:9); 449 kbps; 24.00fps
Аудио: AAC 44100Hz stereo 126 kbps
GeneralComplete name : ...\Elementary [season 1, 480x272, mp4]\Elementary.S01E01.mp4Format : MPEG-4Format profile : Base Media / Version 2Codec ID : mp42File size : 187 MiBDuration : 45mn 53sOverall bit rate mode : VariableOverall bit rate : 571 KbpsEncoded date : UTC 2012-10-03 14:31:35Tagged date : UTC 2012-10-03 14:31:37Writing application : mp4creator 1.4.4

VideoID : 1Format : AVCFormat/Info : Advanced Video CodecFormat profile : <a href="mailto:[email protected]" class="postLink">[email protected]</a> settings, CABAC : NoFormat settings, ReFrames : 2 framesCodec ID : avc1Codec ID/Info : Advanced Video CodingDuration : 45mn 53sBit rate mode : VariableBit rate : 443 KbpsWidth : 480 pixelsHeight : 272 pixelsDisplay aspect ratio : 16:9Frame rate mode : ConstantFrame rate : 24.000 fpsColor space : YUVChroma subsampling : 4:2:0Bit depth : 8 bitsScan type : ProgressiveBits/(Pixel*Frame) : 0.141Stream size : 145 MiB (78%)Language : EnglishEncoded date : UTC 2012-10-03 14:31:35Tagged date : UTC 2012-10-03 14:31:36

AudioID : 2Format : AACFormat/Info : Advanced Audio CodecFormat profile : LCCodec ID : 40Duration : 45mn 52sSource duration : 45mn 53sBit rate mode : VariableBit rate : 126 KbpsMaximum bit rate : 270 KbpsChannel(s) : 2 channelsChannel positions : Front: L RSampling rate : 44.1 KHzCompression mode : LossyStream size : 41.2 MiB (22%)Source stream size : 41.2 MiB (22%)Language : EnglishEncoded date : UTC 2012-10-03 14:31:36Tagged date : UTC 2012-10-03 14:31:37
01) Пилотная серия
02) Пока ты спала (While You Were Sleeping)
03) Пожиратель детей (Child Predator)
04) Крысиные бега (The Rat Race)
05) Меньшее зло (Lesser Evils)
06) Опасный полет (Flight Risk)h tewg
07) Выйти сухим из воды (One Way to Get Off)
08) Длинный запал (The Long Fuse)


Трекер:  [ 24-Дек-2012 12:35 ]

  

Скачать .torrent

Размер .torrent файла 18 KB


Размер: 1.76 GB
Хэш (hash) релиза: 9e155eb57c44ab4392a14c6c5735444f62cdfe87

Еще никто не оставлял запись к записи скачать торрент [SERIAL] Элементарно Elementary . Будь первым!

!Обратная связь