Olanlar Oldu (2017)DVD9 U... | Man On Fire | Yamiche Alcindor

Скачать через торрент [VIDEO] Индиана Джонс 1, 2, 3, 4 Indiana Jones 1, 2, 3, 4 бесплатно русская версия torrent активатор

Статистика раздачи
Размер:  4.08 GB   |    Зарегистрирован:  5 лет 6 месяцев   |    .torrent скачан:  72 раза   |   
Раздают:  1  
   
загрузка...
 
Автор Сообщение

Galfimbul

avatar Galfimbul


Индиана Джонс: В поисках Утраченного Ковчега / Raiders Of The Lost Ark
Год выпуска: 1981

Страна: США
Жанр: Боевик, Приключения
Продолжительность: 01:50:36
Перевод: Профессиональный (двухголосый) - [Премьер Видео]
Русские субтитры: нет

Режиссер: Стивен Спилберг / Steven Spielberg

В ролях: Харрисон Форд (Indiana Jones), Карен Аллен (Marion Ravenwood), Пол Фримен (Dr. René Belloq), Рональд Лейси (Major Arnold Toht), Джон Рис-Дэвис (Sallah), Денхолм Эллиот (Dr. Marcus Brody), Альфред Молина (Satipo), Вольф Калер (Colonel Dietrich), Энтони Хиггинс (Gobler), Вик Тэблиан (Barranca / Monkey Man), Дон Феллоуз (Col. Musgrove), Уильям Хуткинс (Major Eaton)

Описание: Известный археолог и специалист по оккультным наукам доктор Джонс получает опасное задание от правительства США. Он должен отправиться на поиски уникальной реликвии — священного Ковчега. Но Индиана и не подозревает, что аналогичный приказ уже получили тайные агенты Адольфа Гитлера…

Этим потрясающим фильмом продюсер Джордж Лукас и режиссер Стивен Спилберг положили начало саги о странствиях благородного доктора Джонса по всевозможным уголкам земного шара.
Качество: BDRip
Формат: MP4
Видео кодек: XviD
Аудио кодек: AAC
Видео: XviD, 640x272, 2.35:1, 1 080 Kbps, 23.976 fps
Аудио: AAC, 128 Kbps, 48.0 KHz, 2 channels
GeneralComplete name : D:\!РИПЫ\Новая папка\01. Indiana Jones and the Raiders of the Lost Ark (1981).mp4Format : MPEG-4Format profile : Base Media / Version 2Codec ID : mp42File size : 998 MiBDuration : 1h 55mnOverall bit rate mode : VariableOverall bit rate : 1 210 KbpsEncoded date : UTC 2012-12-02 23:28:15Tagged date : UTC 2012-12-02 23:28:15

VideoID : 201Format : MPEG-4 VisualFormat profile : Advanced [email protected] settings, BVOP : NoFormat settings, QPel : NoFormat settings, GMC : No warppointsFormat settings, Matrix : Default (H.263)Codec ID : 20Duration : 1h 55mnBit rate mode : VariableBit rate : 1 080 KbpsMaximum bit rate : 4 171 KbpsWidth : 640 pixelsHeight : 272 pixelsDisplay aspect ratio : 2.35:1Frame rate mode : VariableFrame rate : 23.953 fpsOriginal frame rate : 23.976 fpsMinimum frame rate : 0.296 fpsMaximum frame rate : 23.976 fpsColor space : YUVChroma subsampling : 4:2:0Bit depth : 8 bitsScan type : ProgressiveCompression mode : LossyBits/(Pixel*Frame) : 0.259Stream size : 891 MiB (89%)Writing library : XviD 1.2.1 (UTC 2008-12-04)Encoded date : UTC 2012-12-02 23:28:15Tagged date : UTC 2012-12-02 23:28:59

AudioID : 101Format : AACFormat/Info : Advanced Audio CodecFormat profile : LCCodec ID : 40Duration : 1h 55mnBit rate mode : VariableBit rate : 128 KbpsMaximum bit rate : 148 KbpsChannel(s) : 2 channelsChannel positions : Front: L RSampling rate : 48.0 KHzCompression mode : LossyStream size : 106 MiB (11%)Encoded date : UTC 2012-12-02 23:28:55Tagged date : UTC 2012-12-02 23:28:59


Индиана Джонс и Храм Судьбы / Indiana Jones and the Temple of Doom
Год выпуска: 1984

Страна: США
Жанр: Боевик, Приключения
Продолжительность: 01:53:34
Перевод: Профессиональный (двухголосый) - [Премьер Видео]
Русские субтитры: нет

Режиссер: Стивен Спилберг / Steven Spielberg

В ролях: Харрисон Форд (Indiana Jones), Кейт Кэпшоу (Wilhelmina 'Willie' Scott), Джонатан Ке Кван (Short Round), Амриш Пури (Mola Ram), Рошан Сет (Chattar Lal), Филип Стоун (Captain Blumburtt), Рой Чяо (Lao Che), Дэвид Ип (Wu Han), Рик Янг (Kao Kan), Цзю Чуака (Chen), Рекс Нгуи (Maitre d'), Филип Тан (Chief Henchman)

Описание: Вторая часть невероятных похождений прославленного археолога и искателя приключений Индианы Джонса. В этот раз бесстрашный доктор Джонс совершит путешествие в сердце Гималаев вместе с ресторанной певичкой Уилли Скотт и своим верным маленьким помощником Коротышкой.

Здесь, среди величественных гор, археологу и его спутникам предстоит столкнуться с кровавым культом поклонения древней Богине Смерти — Кали. Станет ли Индиана следующим несчастным, погибшим на жутком алтаре человеческих жертвоприношений, или ему, как всегда, удастся вырваться из цепких лап страха и разобраться со злодеями.
Качество: BDRip
Формат: MP4
Видео кодек: XviD
Аудио кодек: AAC
Видео: XviD, 640x272, 2.35:1, 1 080 Kbps, 23.976 fps
Аудио: AAC, 128 Kbps, 48.0 KHz, 2 channels
GeneralComplete name : D:\!РИПЫ\Новая папка\02. Indiana Jones and the Temple of Doom (1984).mp4Format : MPEG-4Format profile : Base Media / Version 2Codec ID : mp42File size : 1.00 GiBDuration : 1h 58mnOverall bit rate mode : VariableOverall bit rate : 1 210 KbpsEncoded date : UTC 2012-12-02 15:09:08Tagged date : UTC 2012-12-02 15:09:08

VideoID : 201Format : MPEG-4 VisualFormat profile : Advanced [email protected] settings, BVOP : NoFormat settings, QPel : NoFormat settings, GMC : No warppointsFormat settings, Matrix : Default (H.263)Codec ID : 20Duration : 1h 58mnBit rate mode : VariableBit rate : 1 080 KbpsMaximum bit rate : 8 963 KbpsWidth : 640 pixelsHeight : 272 pixelsDisplay aspect ratio : 2.35:1Frame rate mode : VariableFrame rate : 23.976 fpsMinimum frame rate : 0.856 fpsMaximum frame rate : 23.976 fpsColor space : YUVChroma subsampling : 4:2:0Bit depth : 8 bitsScan type : ProgressiveCompression mode : LossyBits/(Pixel*Frame) : 0.259Stream size : 915 MiB (89%)Writing library : XviD 1.2.1 (UTC 2008-12-04)Encoded date : UTC 2012-12-02 15:09:08Tagged date : UTC 2012-12-02 15:09:50

AudioID : 101Format : AACFormat/Info : Advanced Audio CodecFormat profile : LCCodec ID : 40Duration : 1h 58mnBit rate mode : VariableBit rate : 128 KbpsMaximum bit rate : 147 KbpsChannel(s) : 2 channelsChannel positions : Front: L RSampling rate : 48.0 KHzCompression mode : LossyStream size : 108 MiB (11%)Encoded date : UTC 2012-12-02 15:09:44Tagged date : UTC 2012-12-02 15:09:50


Индиана Джонс и Последний Крестовый Поход / Indiana Jones and the Last Crusade
Год выпуска: 1989

Страна: США
Жанр: Боевик, Приключени
Продолжительность: 02:01:40
Перевод: Профессиональный (двухголосый) - [Премьер Видео]
Русские субтитры: нет

Режиссер: Стивен Спилберг / Steven Spielberg

В ролях: Харрисон Форд (Indiana Jones), Шон Коннери (Professor Henry Jones), Денхолм Эллиот (Marcus Brody), Элисон Дуди (Dr. Elsa Schneider), Джон Рис-Дэвис (Sallah), Джулиан Гловер (Walter Donovan), Ривер Феникс (Young Indy), Майкл Бирн (General Vogel), Кеворк Маликян (Kazim), Роберт Эддисон (Grail Knight), Ричард Янг (Fedora), Алексей Сейл (Sultan)

Описание: Третья часть невероятных похождений прославленного археолога и искателя приключений Индианы Джонса. На этот раз бесстрашный Индиана разыскивает самую таинственную реликвию в истории человечества — Святой Грааль. В этом археологу помогает его отец — профессор Джонс старший.

Теперь под бдительным оком своего отца и при помощи своих верных талисманов, неизменной шляпы и хлыста, Индиане предстоит совершить много благородных подвигов и потрясающих открытий. В новых странствиях храброму археологу доведется добыть чашу, которую держал в руках Иисус Христос и получить автограф… самого Адольфа Гитлера.
Качество: BDDRip
Формат: MP4
Видео кодек: XviD
Аудио кодек: AAC
Видео: XviD, 640x272, 2.35:1, 1 080 Kbps, 23.976 fps
Аудио: AAC, 128 Kbps, 48.0 KHz, 2 channels
GeneralComplete name : D:\!РИПЫ\Новая папка\02. Indiana Jones and the Temple of Doom (1984).mp4Format : MPEG-4Format profile : Base Media / Version 2Codec ID : mp42File size : 1.00 GiBDuration : 1h 58mnOverall bit rate mode : VariableOverall bit rate : 1 210 KbpsEncoded date : UTC 2012-12-02 15:09:08Tagged date : UTC 2012-12-02 15:09:08

VideoID : 201Format : MPEG-4 VisualFormat profile : Advanced [email protected] settings, BVOP : NoFormat settings, QPel : NoFormat settings, GMC : No warppointsFormat settings, Matrix : Default (H.263)Codec ID : 20Duration : 1h 58mnBit rate mode : VariableBit rate : 1 080 KbpsMaximum bit rate : 8 963 KbpsWidth : 640 pixelsHeight : 272 pixelsDisplay aspect ratio : 2.35:1Frame rate mode : VariableFrame rate : 23.976 fpsMinimum frame rate : 0.856 fpsMaximum frame rate : 23.976 fpsColor space : YUVChroma subsampling : 4:2:0Bit depth : 8 bitsScan type : ProgressiveCompression mode : LossyBits/(Pixel*Frame) : 0.259Stream size : 915 MiB (89%)Writing library : XviD 1.2.1 (UTC 2008-12-04)Encoded date : UTC 2012-12-02 15:09:08Tagged date : UTC 2012-12-02 15:09:50

AudioID : 101Format : AACFormat/Info : Advanced Audio CodecFormat profile : LCCodec ID : 40Duration : 1h 58mnBit rate mode : VariableBit rate : 128 KbpsMaximum bit rate : 147 KbpsChannel(s) : 2 channelsChannel positions : Front: L RSampling rate : 48.0 KHzCompression mode : LossyStream size : 108 MiB (11%)Encoded date : UTC 2012-12-02 15:09:44Tagged date : UTC 2012-12-02 15:09:50


Индиана Джонс и Королевство xрустального черепа / Indiana Jones and the Kingdom of the Crystal Skull
Год выпуска: 2008

Страна: США
Жанр: Боевик, Приключени
Продолжительность: 02:02:32
Перевод: Профессиональный (полное дублирование)
Русские субтитры: нет

Режиссер: Стивен Спилберг /Steven Spielberg

В ролях: Харрисон Форд (Indiana Jones), Кейт Бланшетт (Irina Spalko), Карен Аллен (Marion Ravenwood), Шайа ЛаБаф (Mutt Williams), Рэй Уинстон ('Mac' George Michale), Джон Хёрт (Professor Oxley), Джим Броудбент (Dean Charles Stanforth), Игорь Жижикин (Dovchenko), Дмитрий Дьяченко (Russian Suit), Илья Волох (Russian Suit), Эммануель Тодоров (Russian Soldier), Павел Личникофф (Russian Soldier)

Описание: 1957 год, разгар холодной войны. После событий первого фильма проходит 21 год. Постаревшего Индиану Джонса захватывают в плен коммунисты, возглавляемые агентом Ириной Спалько, чтобы профессор помог им в расследовании розуэлльского инцидента. Попутно они похищают Мэрион Рэйвенвуд — давнюю возлюбленную Индианы Джонса, ставя профессора перед выбором: бездействие и смерть Мэрион или помощь советской разведке в поисках легендарного хрустального черепа в обмен на свободу женщины. Линии Наски и карта приводят Индиану и сына Мэрион к усыпальнице конкистадора Франсиско де Орельяна, сподвижника Франсиско Писсарро, который отправился когда-то на поиски Эльдорадо и, как считалось до этого момента, пропал без следа со своими спутниками в джунглях Амазонки…
Качество: BDRip
Формат: MP4
Видео кодек: XviD
Аудио кодек: AAC
Видео: XviD, 640x264, 2.40:1, 1 080 Kbps, 23.976 fps
Аудио: AAC, 128 Kbps, 48.0 KHz, 2 channels
GeneralComplete name : D:\!РИПЫ\Новая папка\04. Indiana Jones and the Kingdom of the Crystal Skull (2008).mp4Format : MPEG-4Format profile : Base Media / Version 2Codec ID : mp42File size : 1.04 GiBDuration : 2h 2mnOverall bit rate mode : VariableOverall bit rate : 1 210 KbpsEncoded date : UTC 2012-12-02 08:14:32Tagged date : UTC 2012-12-02 08:14:32

VideoID : 201Format : MPEG-4 VisualFormat profile : Advanced [email protected] settings, BVOP : NoFormat settings, QPel : NoFormat settings, GMC : No warppointsFormat settings, Matrix : Default (H.263)Codec ID : 20Duration : 2h 2mnBit rate mode : VariableBit rate : 1 080 KbpsMaximum bit rate : 5 812 KbpsWidth : 640 pixelsHeight : 264 pixelsDisplay aspect ratio : 2.40:1Frame rate mode : VariableFrame rate : 23.963 fpsOriginal frame rate : 23.976 fpsMinimum frame rate : 0.773 fpsMaximum frame rate : 23.976 fpsColor space : YUVChroma subsampling : 4:2:0Bit depth : 8 bitsScan type : ProgressiveCompression mode : LossyBits/(Pixel*Frame) : 0.267Stream size : 946 MiB (89%)Writing library : XviD 1.2.1 (UTC 2008-12-04)Encoded date : UTC 2012-12-02 08:14:32Tagged date : UTC 2012-12-02 08:15:18

AudioID : 101Format : AACFormat/Info : Advanced Audio CodecFormat profile : LCCodec ID : 40Duration : 2h 2mnBit rate mode : VariableBit rate : 128 KbpsMaximum bit rate : 175 KbpsChannel(s) : 2 channelsChannel positions : Front: L RSampling rate : 48.0 KHzCompression mode : LossyStream size : 112 MiB (11%)Encoded date : UTC 2012-12-02 08:15:16Tagged date : UTC 2012-12-02 08:15:18



Трекер:  [ 22-Дек-2012 13:02 ]

  

Скачать .torrent

Размер .torrent файла 11 KB


Размер: 4.08 GB
Хэш (hash) релиза: 2f624b613b5f3d1398dabe5fe12e12b1254bea1e

Еще никто не оставлял запись к записи скачать торрент [VIDEO] Индиана Джонс 1, 2, 3, 4 Indiana Jones 1, 2, 3, 4 . Будь первым!

!Обратная связь