Molly's Game
Information

Скачать через торрент [SERIAL] Подозреваемый Person of Interest бесплатно русская версия torrent активатор

Статистика раздачи
Размер:  1.76 GB   |    Зарегистрирован:  5 лет 3 месяца   |    .torrent скачан:  56 раз   |   
Раздают:  1  
   
загрузка...
 
Автор Сообщение

Galfimbul

avatar Galfimbul


Подозреваемый / Person of Interest

Год выпуска: 2012

Страна: США
Жанр: Драма, Триллер
Продолжительность: 00:44:00
Перевод: Многоголосый закадровый (LostFilm)
Русские субтитры: нет
Режиссер: Стивен Уиллиамс, Колин Бакси, Дэвид Семел, Стивен Депол, Чарльз Бисон, Ричард Льюис
В ролях: Тараджи П. Хенсон, Джеймс Кэвизел, Энтони Мангано, Майкл Эмерсон, Кевин Чэпмэн
Страничка на IMDB: http://www.imdb.com/title/tt1839578/
Описание: Сюжет вертится вокруг главного героя — хитроумного миллиардера, который изобрел способ вычислять людей, намеревающихся совершить какое-либо преступление.
Качество: HDTV-Rip
Формат: MP4
Видео кодек: H.264
Аудио кодек: AAC
Видео: MPEG4 Video (H264); 480x272 (16:9); 449 kbps; 24.00fps
Аудио: AAC 44100Hz stereo 126 kbps
01) Запасной вариант (The Contingency)
02) Плохой код (Bad Code)
03) Маскарад (Masquerade)
04) Головорез (Triggerman)
05) Неудачный заголовок (Bury the Lede)
06) Большой путь (High Road)
07) Необходимо (Critical)
08) Пока смерть не разлучит нас (Til Death)
GeneralComplete name : ...\Person of Interest [season 2, 480x272, mp4]\Person.of.Interest.S02E01.mp4Format : MPEG-4Format profile : Base Media / Version 2Codec ID : mp42File size : 180 MiBDuration : 44mn 13sOverall bit rate mode : VariableOverall bit rate : 569 KbpsEncoded date : UTC 2012-09-30 19:03:41Tagged date : UTC 2012-09-30 19:03:43Writing application : mp4creator 1.4.4

VideoID : 1Format : AVCFormat/Info : Advanced Video CodecFormat profile : <a href="mailto:[email protected]" class="postLink">[email protected]</a> settings, CABAC : NoFormat settings, ReFrames : 2 framesCodec ID : avc1Codec ID/Info : Advanced Video CodingDuration : 44mn 13sBit rate mode : VariableBit rate : 442 KbpsWidth : 480 pixelsHeight : 272 pixelsDisplay aspect ratio : 16:9Frame rate mode : ConstantFrame rate : 24.000 fpsColor space : YUVChroma subsampling : 4:2:0Bit depth : 8 bitsScan type : ProgressiveBits/(Pixel*Frame) : 0.141Stream size : 140 MiB (78%)Language : EnglishEncoded date : UTC 2012-09-30 19:03:41Tagged date : UTC 2012-09-30 19:03:42

AudioID : 2Format : AACFormat/Info : Advanced Audio CodecFormat profile : LCCodec ID : 40Duration : 44mn 12sSource duration : 44mn 13sBit rate mode : VariableBit rate : 126 KbpsMaximum bit rate : 275 KbpsChannel(s) : 2 channelsChannel positions : Front: L RSampling rate : 44.1 KHzCompression mode : LossyStream size : 39.7 MiB (22%)Source stream size : 39.7 MiB (22%)Language : EnglishEncoded date : UTC 2012-09-30 19:03:43Tagged date : UTC 2012-09-30 19:03:43


Трекер:  [ 24-Дек-2012 12:35 ]

  

Скачать .torrent

Размер .torrent файла 18 KB


Размер: 1.76 GB
Хэш (hash) релиза: 8e53d95c7fdc7a4d47170f9cd114610cc6049f5e

Еще никто не оставлял запись к записи скачать торрент [SERIAL] Подозреваемый Person of Interest . Будь первым!

!Обратная связь