Gringo (2018) | Nero Wolfe | Stargate Atlantis

Скачать через торрент [SERIAL] Воздействие Leverage бесплатно русская версия torrent активатор

Статистика раздачи
Размер:  10.65 GB   |    Зарегистрирован:  5 лет 6 месяцев   |    .torrent скачан:  34 раза   |   
Раздают:  1  
   
загрузка...
 
Автор Сообщение

Galfimbul

avatar Galfimbul


Воздействие / Leverage

Год выпуска: 2008

Страна: США
Жанр: Драма, экшн, комедия
Продолжительность: 00:42:00
Перевод: Многоголосый закадровый (LostFilm)
Режиссер: Джонатан Фрайкс, Дин Девлин
В ролях: Джина Беллман, Тимоти Хаттон, Кристиан Кэйн, Элдис Ходж, Андреу Дж Ли, Марк Шеппард, Томми Бартлетт, Джон Ли Броди, Дэбби Барнс, Джей Дисней
Описание: Нейт Форд бывший следователь страховой компании возглавляет команду в которую входят: компьютерный мошенник Хардисон, воровка и вообще безбашенная особа Паркер, актриса и мошенница Софи и специалист широкого профиля Эллиот. Эта команда помогает людям пострадавшим от рук сильных мира сего, а попросту - воров.
Качество: WEB-DLRip
Формат: MP4
Видео кодек: H.264
Аудио кодек: AAC
Видео: MPEG4 Video (H264); 480x272 (16:9); 449 kbps; 24.00fps
Аудио: AAC 44100Hz stereo 126 kbps
ОбщееПолное имя : ...\Leverage [480x272, mp4]\Leverage [season 1, 480x272, mp4]\Leverage.s01e01.mp4Формат : MPEG-4Профиль формата : Base Media / Version 2Идентификатор кодека : mp42Размер файла : 233 МбайтПродолжительность : 56 м.Режим общего битрейта : ПеременныйОбщий поток : 575 Кбит/секДата кодирования : UTC 2012-12-02 08:19:01Дата пометки : UTC 2012-12-02 08:19:03Программа кодирования : mp4creator 1.4.4

ВидеоИдентификатор : 1Формат : AVCФормат/Информация : Advanced Video CodecПрофиль формата : <a href="mailto:[email protected]Параметр" class="postLink">[email protected]Параметр</a> CABAC формата : НетПараметр ReFrames формата : 2 кадраИдентификатор кодека : avc1Идентификатор кодека/Информация : Advanced Video CodingПродолжительность : 56 м.Вид битрейта : ПеременныйБитрейт : 450 Кбит/секШирина : 480 пикселейВысота : 272 пикселяСоотношение сторон : 16:9Режим частоты кадров : ПостоянныйЧастота кадров : 24,000 кадра/секЦветовое пространство : YUVСубдискретизация насыщенности : 4:2:0Битовая глубина : 8 битТип развёртки : ПрогрессивнаяБит/(Пиксели*Кадры) : 0.144Размер потока : 182 Мбайт (78%)Язык : EnglishДата кодирования : UTC 2012-12-02 08:19:01Дата пометки : UTC 2012-12-02 08:19:03

АудиоИдентификатор : 2Формат : AACФормат/Информация : Advanced Audio CodecПрофиль формата : LCИдентификатор кодека : 40Продолжительность : 56 м.Продолжительность оригинала : 56 м.Вид битрейта : ПеременныйБитрейт : 122 Кбит/секМаксимальный битрейт : 198 Кбит/секКаналы : 2 каналаРасположение каналов : Front: L RЧастота : 44,1 КГцМетод сжатия : С потерямиРазмер потока : 49,6 Мбайт (21%)Размер потока оригинала : 49,6 Мбайт (21%)Язык : EnglishДата кодирования : UTC 2012-12-02 08:19:03Дата пометки : UTC 2012-12-02 08:19:03
1). Ограбление по-нигерийски (The Nigerian Job).
2). Ветеранское дело (The Homecoming Job).
3). Дело о двух лошадях (The Two-Horse Job).
4). Церковное дело (The Miracle Job).
5). Банковское дело (The Bank Shot Job).
6). Семейное дело (The Stork Job).
7). Свадебное дело (The Wedding Job).
8). Дело на большой высоте (The Mile High Job).
9). Снежное дело (The Snow Job).
10). Дело о реабилитации (The 12-Step Job).
11). Дело о присяжном номер 6 (The Juror #6 Job).
12). Дело о Первом Давиде (The First David Job).
13). Дело о Втором Давиде (The Second David Job).
1). Дело о Бостонской субсидии (The Beantown Bailout Job).
2). Дело о поражении (The Tap-Out Job).
3). Дело об эпидемии (The Order 23 Job).
4). Дело о волшебных феях (The Fairy Godparents Job).
5). Дело о "Трёх днях Хантер" (The Three Days of the Hunter Job).
6). Дело о фокусах (The Top Hat Job).
7). Дело о двух командах (The Two Live Crew Job).
8). Ледяное дело (The Ice Man Job).
9). Дело о потерянном наследнике (The Lost Heir Job).
10). Дело о подиуме (The Runway Job).
11). Дело о бутылке (The Bottle Job).
12). Дело о Занзибарском базаре (The Zanzibar Marketplace Job).
13). Дело о будущем (The Future Job).
14). Дело о бейсболе (The Three Strikes Job).
15). Дело о Мальтийском соколе (The Maltese Falcon Job).
1. Тюремное дело (The Jailhouse Job)
2. Дело об одноклассниках (The Reunion Job)
3. Внутреннее дело (The Inside Job)
4. Дело о Шахерезаде (The Scheherazade Job)
5. Дело о лекарствах (The Double Blind Job)
6. Работа в студии (The Studio Job)
7. Дело о рыбалке (The Gone-Fishin' Job)
8. Дело об угоне (The Boost Job)
9. Дело о наперстках (The Three-Card Monte Job)
10. Дело о шахте (The Underground Job)
11. Дело пятилетней давности (The Rashomon Job)
12. Дело о короле Георге (The King George Job)
13. Дело о пробуждении (The Morning After Job)
14. Дело о рождестве (The Ho, Ho, Ho Job)
15. Дело о большом взрыве (The Big Bang Job)
16. Дело о Сан-Лоренцо (The San Lorenzo Job)
1. Дело о длинном спуске (The Long Way Down Job)
2. Дело "Десять нахалят" (The 10 Li'l Grifters Job)
3. Дело пятнадцати минут (The 15 Minutes Job)
4. Дело о Ван Гоге (The Van Gogh Job)
5. Дело о горячей картошке (The Hot Potato Job)
6. Дело о ярмарке (The Carnival Job)
7. Смертельно опасное дело (The Grave Danger Job)
8. Дело о биржевых махинациях (The Boiler Room Job)
9. Дело о клятве (The Cross My Heart Job)
10. Дело "Ферзевый гамбит" (The Queen's Gambit Job)
11. Дело об эксперименте (The Experimental Job)
12. Дело об офисе (The Office Job)
13. Дело о вечере для девочек (The Girls' Night Out Job)
14. Дело о вечере для мальчиков (The Guys' Night Out Job)
15. Дело об одиноких сердцах (The Lonely Hearts Job)
16. Дело о золоте (The Gold Job)
17. Дело о радио (The Radio Job)
18. Дело о дамбе (The Last Dam Job)


Трекер:  [ 24-Дек-2012 12:35 ]

  

Скачать .torrent

Размер .torrent файла 32 KB


Размер: 10.65 GB
Хэш (hash) релиза: 6526be6fcdb2a50153b27adccfb356f1096b04a8

Еще никто не оставлял запись к записи скачать торрент [SERIAL] Воздействие Leverage . Будь первым!

!Обратная связь