Downsizing 2017 | HD Views: 253 Baaghi(2016) | BDRipVF The Signal

Скачать через торрент [VIDEO] Великолепная афера Matchstick Men бесплатно русская версия torrent активатор

Статистика раздачи
Размер:  437 MB   |    Зарегистрирован:  5 лет 6 месяцев   |    .torrent скачан:  29 раз   |   
Раздают:  1  
   
загрузка...
 
Автор Сообщение

Galfimbul

avatar Galfimbul


Великолепная афера / Matchstick Men
Год выпуска: 2003
Страна: США
Жанр: триллер, драма, комедия, криминал
Продолжительность: 01:56:06
Перевод: Профессиональный (полное дублирование)
Русские субтитры: нет
Режиссер: Ридли Скотт / Ridley Scott

В ролях: Николас Кейдж, Сэм Рокуэлл, Элисон Ломан, Брюс Олтмен, Брюс МакГилл, Дженни О’Хара, Стив Истин, Бет Грант, Шейла Келли, Фрэн Кранц
Описание: Опытный мошенник Рой и его амбициозный протеже Фрэнк занимаются мелким надувательством в сфере торговли. Их фокусы приносят от нескольких сот до нескольких тысяч баксов, что, в конечном счете, делает их партнерство прибыльным. Однако, если с «работой» у Роя все в порядке, то личная жизнь полна проблем: он одинок, помешан на чистоте, и ко всему прочему не совсем психически здоров. На курсах психотерапии, на которые его заставил пойти Фрэнк, совершенно неожиданно Рой узнает о существовании дочери по имени Анжела.

Сначала появление дочки нарушает тщательно спланированный образ жизни ее отца, но вскоре Рой осознает все радости общения с близким человеком. После того как Анжела в итоге узнает чем занимается ее отец, по ее настоянию мошенники начинают обучать ее некоторым своим «приемам» торговли. К смешанному чувству удивления, гордости и тревоги отца, она показывает поразительный талант к мошенничеству…
Качество: WEB-DLRip
Формат: MP4
Видео кодек: H.264
Аудио кодек: AAC
Видео: 480x200, 460 Kbps, 23.976 fps
Аудио: 48000 Hz, ~64.0 Kbps, 2 channels

Format : MPEG-4Format profile : Base MediaCodec ID : isomFile size : 437 MiBDuration : 1h 56mnOverall bit rate mode : VariableOverall bit rate : 526 KbpsEncoded date : UTC 2012-11-24 12:41:27Tagged date : UTC 2012-11-24 12:41:27

VideoID : 1Format : AVCFormat/Info : Advanced Video CodecFormat profile : <a href="mailto:[email protected]" class="postLink">[email protected]</a> settings, CABAC : NoFormat settings, ReFrames : 3 framesCodec ID : avc1Codec ID/Info : Advanced Video CodingDuration : 1h 56mnBit rate : 460 KbpsMaximum bit rate : 1 805 KbpsWidth : 480 pixelsHeight : 200 pixelsDisplay aspect ratio : 2.40:1Frame rate mode : ConstantFrame rate : 23.976 fpsColor space : YUVChroma subsampling : 4:2:0Bit depth : 8 bitsScan type : ProgressiveBits/(Pixel*Frame) : 0.200Stream size : 382 MiB (87%)Writing library : x264 core 129 r2230 1cffe9fEncoding settings : cabac=0 / ref=3 / deblock=1:0:0 / analyse=0x1:0x111 / me=esa / subme=9 / psy=1 / psy_rd=1.00:0.00 / mixed_ref=1 / me_range=32 / chroma_me=1 / trellis=0 / 8x8dct=0 / cqm=0 / deadzone=21,11 / fast_pskip=0 / chroma_qp_offset=-2 / threads=6 / lookahead_threads=1 / sliced_threads=0 / nr=0 / decimate=1 / interlaced=0 / bluray_compat=0 / constrained_intra=0 / bframes=0 / weightp=0 / keyint=230 / keyint_min=23 / scenecut=40 / intra_refresh=0 / rc=2pass / mbtree=0 / bitrate=460 / ratetol=1.0 / qcomp=0.60 / qpmin=0 / qpmax=69 / qpstep=4 / cplxblur=20.0 / qblur=0.5 / ip_ratio=1.40 / aq=1:1.00 / zones=161600,166498,b=0.35Encoded date : UTC 2012-11-24 11:26:39Tagged date : UTC 2012-11-24 12:41:58

AudioID : 2Format : AACFormat/Info : Advanced Audio CodecFormat profile : HE-AAC / LCCodec ID : 40Duration : 1h 56mnBit rate mode : VariableBit rate : 64.0 KbpsMaximum bit rate : 92.6 KbpsChannel(s) : 2 channelsChannel positions : Front: L RSampling rate : 48.0 KHz / 24.0 KHzCompression mode : LossyStream size : 53.2 MiB (12%)Language : RussianEncoded date : UTC 2012-11-24 12:41:54Tagged date : UTC 2012-11-24 12:41:58


Трекер:  [ 22-Дек-2012 13:02 ]

  

Скачать .torrent

Размер .torrent файла 17 KB


Размер: 437 MB
Хэш (hash) релиза: 834509bd1d7d32ed962e2ae9ff0475e8c78181aa

Еще никто не оставлял запись к записи скачать торрент [VIDEO] Великолепная афера Matchstick Men . Будь первым!

!Обратная связь