Afterboom | Battletech Ironman-PLAZA | 交通桥梁建筑的道路

Скачать через торрент [VIDEO] Пирaты Kaрибскoго мopя: Ha стpaнных бepeгах Рirаtеs оf thе Саribbеаn: Оn Strаngеr Тidеs бесплатно русская версия torrent активатор

Статистика раздачи
Размер:  1.46 GB   |    Зарегистрирован:  5 лет 6 месяцев   |    .torrent скачан:  29 раз   |   
Раздают:  1  
   
загрузка...
 
Автор Сообщение

Galfimbul

avatar Galfimbul


Pirates of the Caribbean: On Stranger Tides

Год выпуска: 2011
Страна: США (Walt Disney Pictures, Jerry Bruckheimer Films)
Жанр: Фэнтези, Приключения, Комедия
Продолжительность: 02:16:22
Перевод: Профессиональный (дублированный)

Режиссер: Роб Маршалл / Rob Marshall

В ролях: Джонни Депп, Пенелопа Крус, Джеффри Раш, Иэн МакШейн, Кевин МакНэлли, Стивен Грэм, Сэм Клафлин, Астрид Берже-Фрисби, Кит Ричардс, Ричард Гриффитс

В новой истории о поисках истины, предательстве, вечной молодости и смертельной опасности капитану Джеку Воробью предстоит столкнуться с женщиной из своего прошлого Анжеликой. До самого конца не будет понятно, связывает ли их настоящая любовь, или же Анжелика искусно притворяется, чтобы вместе с Джеком добраться до таинственного источника вечной молодости.
Она силой принуждает капитана Джека Воробья взойти на корабль «Месть Королевы Анны», которым управляет коварный злодей Черная Борода. Наш герой оказывается в ситуации, когда он не знает, чего ему бояться больше - ужасного злодея или же свою давнюю подругу.
Качество: HDRip| Формат: MP4| Видео кодек: XviD| Аудио кодек: AAC | Видео: XviD (1.2.2) 1400kbps 800x336 23.976fps | Аудио: AAC 128kbps 2ch 16bit 48000khz | Источник: Blu-Ray Remux
Format : MPEG-4
Format profile : Base Media / Version 2
Codec ID : mp42
File size : 1.46 GiB
Duration : 2h 16mn
Overall bit rate mode : Variable
Overall bit rate : 1 530 Kbps
Encoded date : UTC 2012-10-19 09:57:12
Tagged date : UTC 2012-10-19 09:57:12

Video
ID : 201
Format : MPEG-4 Visual
Format profile : Advanced [email protected]
Format settings, BVOP : No
Format settings, QPel : No
Format settings, GMC : No warppoints
Format settings, Matrix : Default (H.263)
Codec ID : 20
Duration : 2h 16mn
Bit rate mode : Variable
Bit rate : 1 399 Kbps
Maximum bit rate : 8 327 Kbps
Width : 800 pixels
Height : 336 pixels
Display aspect ratio : 2.40:1
Frame rate mode : Variable
Frame rate : 23.976 fps
Minimum frame rate : 1.844 fps
Maximum frame rate : 23.976 fps
Color space : YUV
Chroma subsampling : 4:2:0
Bit depth : 8 bits
Scan type : Progressive
Compression mode : Lossy
Bits/(Pixel*Frame) : 0.217
Stream size : 1.33 GiB (91%)
Writing library : XviD 1.2.1 (UTC 2008-12-04)
Encoded date : UTC 2012-10-19 09:57:12
Tagged date : UTC 2012-10-19 09:58:22

Audio
ID : 101
Format : AAC
Format/Info : Advanced Audio Codec
Format profile : LC
Codec ID : 40
Duration : 2h 16mn
Bit rate mode : Variable
Bit rate : 128 Kbps
Maximum bit rate : 227 Kbps
Channel(s) : 2 channels
Channel positions : Front: L R
Sampling rate : 48.0 KHz
Compression mode : Lossy
Stream size : 125 MiB (8%)
Encoded date : UTC 2012-10-19 09:58:16
Tagged date : UTC 2012-10-19 09:58:22


Трекер:  [ 22-Дек-2012 13:01 ]

  

Скачать .torrent

Размер .torrent файла 15 KB


Размер: 1.46 GB
Хэш (hash) релиза: a7a185c91c66de9b36a36f40c31372336b83aad2

Еще никто не оставлял запись к записи скачать торрент [VIDEO] Пирaты Kaрибскoго мopя: Ha стpaнных бepeгах Рirаtеs оf thе Саribbеаn: Оn Strаngеr Тidеs . Будь первым!

!Обратная связь