Prehistoric Terror
Bajo La Rosa BLuRayRip

Скачать через торрент [SERIAL] Воздействие Leverage бесплатно русская версия torrent активатор

Статистика раздачи
Размер:  2.36 GB   |    Зарегистрирован:  5 лет 3 месяца   |    .torrent скачан:  31 раз   |   
Раздают:  1  
   
загрузка...
 
Автор Сообщение

Galfimbul

avatar Galfimbul


Воздействие / Leverage

Год выпуска: 2012

Страна: США
Жанр: Драма, экшн
Продолжительность: 00:42:00
Перевод: Многоголосый закадровый (LostFilm.TV)
Режиссер: Джонатан Фрайкс, Дин Девлин
В ролях: Джина Беллман, Тимоти Хаттон, Кристиан Кэйн, Элдис Ходж, Андреу Дж Ли, Марк Шеппард, Томми Бартлетт, Джон Ли Броди, Дэбби Барнс, Джей Дисней
Описание: Нейт Форд бывший следователь страховой компании возглавляет команду в которую входят: компьютерный мошенник Хардисон, воровка и вообще безбашенная особа Паркер, актриса и мошенница Софи и специалист широкого профиля Эллиот. Эта команда помогает людям пострадавшим от рук сильных мира сего, а попросту - воров.
Качество: WEB-DLRip
Формат: MP4
Видео кодек: H.264
Аудио кодек: AAC
Видео: MPEG4 Video (H264); 480x272 (16:9); 449 kbps; 24.00fps
Аудио: AAC 44100Hz stereo 126 kbps
GeneralComplete name : C:\Documents and Settings\Admin\Мои документы\Downloads\Leverage [season 5, 480x272, mp4]\Leverage.S05E01.mp4Format : MPEG-4Format profile : Base Media / Version 2Codec ID : mp42File size : 172 MiBDuration : 42mn 25sOverall bit rate : 568 KbpsEncoded date : UTC 2012-09-02 14:17:58Tagged date : UTC 2012-09-02 14:19:00Writing application : mp4creator 1.4.4

VideoID : 1Format : AVCFormat/Info : Advanced Video CodecFormat profile : <a href="mailto:[email protected]" class="postLink">[email protected]</a> settings, CABAC : NoFormat settings, ReFrames : 2 framesCodec ID : avc1Codec ID/Info : Advanced Video CodingDuration : 42mn 25sBit rate mode : VariableBit rate : 440 KbpsWidth : 480 pixelsHeight : 272 pixelsDisplay aspect ratio : 16:9Frame rate mode : ConstantFrame rate : 24.000 fpsColor space : YUVChroma subsampling : 4:2:0Bit depth : 8 bitsScan type : ProgressiveBits/(Pixel*Frame) : 0.140Stream size : 134 MiB (78%)Language : EnglishEncoded date : UTC 2012-09-02 14:17:58Tagged date : UTC 2012-09-02 14:18:48

AudioID : 2Format : AACFormat/Info : Advanced Audio CodecFormat profile : LCCodec ID : 40Duration : 42mn 25sBit rate mode : VariableBit rate : 125 KbpsMaximum bit rate : 264 KbpsChannel(s) : 2 channelsChannel positions : Front: L RSampling rate : 44.1 KHzCompression mode : LossyStream size : 38.1 MiB (22%)Language : EnglishEncoded date : UTC 2012-09-02 14:18:50Tagged date : UTC 2012-09-02 14:19:00
01) Дело о большой пташке
02) Дело о подаче
03) Дело о первом контакте
04) Дело о французских связях
05) Дело о подборе ключей
06) Дело о Д.Б. Купере
07) Дело о настоящей ненастоящей машине
08) Дело о подбитом крыле
09) Дело о провокации
10) Дело о подтасовке
11) Дело об очень низких ценах


Трекер:  [ 24-Дек-2012 12:35 ]

  

Скачать .torrent

Размер .torrent файла 13 KB


Размер: 2.36 GB
Хэш (hash) релиза: ad5c73a7df861c3b748510e45d5f14fb0eae36c6

Еще никто не оставлял запись к записи скачать торрент [SERIAL] Воздействие Leverage . Будь первым!

!Обратная связь