The Three Burials Of Melquiades Estrada | Espionnage | Lady Bird BluRay-Screeener

Скачать через торрент музыку VA - Ska...Ska...Skandal! Nº 1&2 - 1990, FLAC бесплатно без регистрации torrent

Статистика раздачи
Размер:  490 MB   |    Зарегистрирован:  5 лет 6 месяцев   |    .torrent скачан:  41 раз   |   
Раздают:  1  
   
загрузка...
 
Автор Сообщение

Galfimbul

avatar Galfimbul


Ska...Ska...Skandal! Nº 1&2

Жанр: Ska
Страна-производитель диска: Germany
Год издания: 1990
Издатель (лейбл): Pork Pie
Номер по каталогу: 04083-26
Страна: Germany
Аудиокодек: FLAC (*.flac)
Тип рипа: image+.cue
Битрейт аудио: lossless
Продолжительность: 69:00
Источник (релизер): AUDELAS KINGDOM
Наличие сканов в содержимом раздачи: да

01. Skaos - Cool as ice
02. Braces, The - Too true to be good
03. Frits, The - Work
04. Butlers, The - On the rocks
05. Skapelle - Are you ready
06. Bosso, El & Die Ping Pongs - Shame & scandal
07. Messer Banzani - Suicide
08. No Sports - Harry hands
09. Blechreiz - Bumble bee
10. Blue Chateau - I don't care
11. Spy Club - Intro
12. No Sports - Stranger to London
13. Skaos - Oh, Sally
14. No Sports - King Kong
15. Braces, The - Playing darts
16. Blechreiz - News from U.K.
17. Bosso, El & Die Ping Pongs - Immer nur Ska
18. The Braces - Chinese Lover
19. Skaos - Superheroe
20. Blechreiz - Out tonight?
21. Butlers, The - Paranoia
22. Spy Club - Torero
Exact Audio Copy V1.0 beta 2 from 29. April 2011

Отчёт EAC об извлечении, выполненном 30. ноября 2012, 20:07

Various / Ska...Ska...Skandal! Nº 1&2

Дисковод: ATAPI iHAS124 B Adapter: 1 ID: 1

Режим чтения : ДостоверностьИспользование точного потока : ДаОтключение кэша аудио : ДаИспользование указателей C2 : Нет

Коррекция смещения при чтении : 6Способность читать области Lead-in и Lead-out : НетЗаполнение пропущенных сэмплов тишиной : ДаУдаление блоков с тишиной в начале и конце : НетПри вычислениях CRC использовались нулевые сэмплы : ДаИнтерфейс : Встроенный Win32-интерфейс для Win NT/2000

Выходной формат : Пользовательский кодировщикВыбранный битрейт : 1024 kBit/sКачество : ВысокийДобавление ID3-тега : НетУтилита сжатия : C:\Program Files\Exact Audio Copy\FLAC\FLAC.EXEДополнительные параметры : -6 -V -T "ARTIST=%artist%" -T "TITLE=%title%" -T "ALBUM=%albumtitle%" -T "DATE=%year%" -T "TRACKNUMBER=%tracknr%" -T "GENRE=%genre%" -T "COMMENT=%comment%" -T "BAND=%albuminterpret%" -T "COMPOSER=%composer%" %haslyrics%--tag-from-

TOC извлечённого CD

Трек | Старт | Длительность | Начальный сектор | Конечный сектор --------------------------------------------------------------------- 1 | 0:00.00 | 3:06.57 | 0 | 14006 2 | 3:06.57 | 3:02.43 | 14007 | 27699 3 | 6:09.25 | 2:47.25 | 27700 | 40249 4 | 8:56.50 | 5:47.15 | 40250 | 66289 5 | 14:43.65 | 4:17.45 | 66290 | 85609 6 | 19:01.35 | 4:05.25 | 85610 | 104009 7 | 23:06.60 | 3:35.32 | 104010 | 120166 8 | 26:42.17 | 3:35.45 | 120167 | 136336 9 | 30:17.62 | 3:35.25 | 136337 | 152486 10 | 33:53.12 | 3:58.63 | 152487 | 170399 11 | 37:52.00 | 0:07.45 | 170400 | 170969 12 | 37:59.45 | 1:40.27 | 170970 | 178496 13 | 39:39.72 | 2:28.38 | 178497 | 189634 14 | 42:08.35 | 5:13.17 | 189635 | 213126 15 | 47:21.52 | 3:34.23 | 213127 | 229199 16 | 50:56.00 | 2:38.15 | 229200 | 241064 17 | 53:34.15 | 3:14.60 | 241065 | 255674 18 | 56:49.00 | 3:45.50 | 255675 | 272599 19 | 60:34.50 | 3:03.10 | 272600 | 286334 20 | 63:37.60 | 4:24.45 | 286335 | 306179 21 | 68:02.30 | 3:11.60 | 306180 | 320564 22 | 71:14.15 | 3:02.47 | 320565 | 334261

Характеристики диапазона извлечения и сообщения об ошибках

Выбранный диапазон

Имя файла D:\Muzika\VA - Ska...Ska...Skandal! Nº 1&2 (1990)\Various - Ska...Ska...Skandal! Nº 1&2.wav

Пиковый уровень 95.3 % Скорость извлечения 3.7 X Качество диапазона 100.0 % CRC теста A4C9D174 CRC копии A4C9D174 Копирование... OK

Ошибок не произошло

Конец отчёта

==== Контрольная сумма отчёта A771C575D4EF6FBC94B6F7189C09E832ABC7F45E91E9CDAE6D28CDAD5DFE3A1C ====


Трекер:  [ 01-Янв-2013 20:22 ]

  

Скачать .torrent

Размер .torrent файла 20 KB


Размер: 490 MB
Хэш (hash) релиза: 2051cebf89341c9265d45e1f033eec929cc8e406

Еще никто не оставлял запись к записи скачать торрент VA - Ska...Ska...Skandal! Nº 1&2 - 1990, FLAC . Будь первым!

!Обратная связь