..."/> ..."> The White Queen | Survivor (2000) | Bookmark This Torrent

Скачать через торрент [SERIAL] Касл Castle бесплатно русская версия torrent активатор

Статистика раздачи
Размер:  13.96 GB   |    Зарегистрирован:  5 лет 6 месяцев   |    .torrent скачан:  57 раз   |   
Раздают:  1  
   
загрузка...
 
Автор Сообщение

Galfimbul

avatar Galfimbul


Касл / Castle

Год выпуска: 2009

Страна: США
Жанр: Детектив, драма, комедия
Продолжительность: 00:43:00
Перевод: Профессиональный (многоголосый, FoxCrime, LostFilm)
Русские субтитры: нет
Режиссер: David M. Barrett
В ролях: Nathan Fillion, Stana Katic, Jon Huertas, Seamus Dever, Molly C. Quinn, Susan Sullivan и др.
Описание: Знаменитый нью-йоркский писатель Ричард "Рики" Касл получает личное разрешение от мэра города участвовать в расследованиях убойного отдела, чтобы черпать вдохновение для своих книг из работы детективов и реальной полицейской хроники.
Касл пытается доказать надменному детективу Кейт Беккет, что в расследовании убийств его блестящий ум и умение думать как преступник, еще более полезны, чем его связи с влиятельными людьми и общественное признание.
Вскоре он становится неотъемлемой частью жизни убойного отдела. А дома Касла ждет любимая дочь Алексис и мать - светская львица, Марта.
Качество: WEB-DLRip
Формат: MP4
Видео кодек: H.264
Аудио кодек: AAC
Видео: MPEG4 Video (H264); 480x272 (16:9); 449 kbps; 24.00fps
Аудио: AAC 44100Hz stereo 126 kbps
ОбщееПолное имя : ...\Castle [480x272, mp4]\Castle [season 1, 480x272, mp4]\Castle.s01e01.mp4Формат : MPEG-4Профиль формата : Base Media / Version 2Идентификатор кодека : mp42Размер файла : 176 МбайтПродолжительность : 42 м.Режим общего битрейта : ПеременныйОбщий поток : 573 Кбит/секДата кодирования : UTC 2012-11-28 00:23:57Дата пометки : UTC 2012-11-28 00:23:58Программа кодирования : mp4creator 1.4.4

ВидеоИдентификатор : 1Формат : AVCФормат/Информация : Advanced Video CodecПрофиль формата : <a href="mailto:[email protected]Параметр" class="postLink">[email protected]Параметр</a> CABAC формата : НетПараметр ReFrames формата : 2 кадраИдентификатор кодека : avc1Идентификатор кодека/Информация : Advanced Video CodingПродолжительность : 42 м.Вид битрейта : ПеременныйБитрейт : 445 Кбит/секШирина : 480 пикселейВысота : 272 пикселяСоотношение сторон : 16:9Режим частоты кадров : ПостоянныйЧастота кадров : 24,000 кадра/секЦветовое пространство : YUVСубдискретизация насыщенности : 4:2:0Битовая глубина : 8 битТип развёртки : ПрогрессивнаяБит/(Пиксели*Кадры) : 0.142Размер потока : 137 Мбайт (78%)Язык : EnglishДата кодирования : UTC 2012-11-28 00:23:57Дата пометки : UTC 2012-11-28 00:23:58

АудиоИдентификатор : 2Формат : AACФормат/Информация : Advanced Audio CodecПрофиль формата : LCИдентификатор кодека : 40Продолжительность : 42 м.Продолжительность оригинала : 42 м.Вид битрейта : ПеременныйБитрейт : 126 Кбит/секМаксимальный битрейт : 240 Кбит/секКаналы : 2 каналаРасположение каналов : Front: L RЧастота : 44,1 КГцМетод сжатия : С потерямиРазмер потока : 38,6 Мбайт (22%)Размер потока оригинала : 38,6 Мбайт (22%)Язык : EnglishДата кодирования : UTC 2012-11-28 00:23:58Дата пометки : UTC 2012-11-28 00:23:58
1). Цветы на твою могилу (Flowers for Your Grave).
2). Моя мёртвая няня (Nanny McDead).
3). Хедж-фондовые братки (Hedge Fund Homeboys).
4). В аду гнева нет (Hell Hath No Fury).
5). Её холодные вены (A Chill Goes Through Her Veins).
6). Всегда покупай в магазинах (Always Buy Retail).
7). Дом — это там где останавливается сердце (Home Is Where the Heart Stops).
8). Призраки (Ghosts)
9). Потерянная девочка (Little Girl Lost).
10). Смерть в семье (A Death in the Family).
1). В смерти по уши (Deep in Death).
2). Две карты (The Double Down).
3). Изобретение девушки (Inventing the Girl).
4). Обмани меня раз… (Fool Me Once…).
5). Когда сломается колыбель (When the Bough Breaks).
6). Вампирский выходной (Vampire Weekend).
7). Последние слова знаменитости (Famous Last Words).
8). Убить гонца (Kill the Messenger).
9). Люби меня до смерти (Love Me Dead).
10). Сокровище одного человека (One Man’s Treasure).
11). Пятая пуля. (The Fifth Bullet).
12). Роза на долгую память (A Rose for Everafter).
13). Удар в спину (Sucker Punch).
14). Третий (The Third Man).
15). Последний хоумран (Suicide Squeeze).
16). Госпожа всегда шлёпает дважды (The Mistress Always Spanks Twice).
17). Тик-тик-тик (Tick Tick Tick).
18). Бум! (Boom!).
19). Укутанная смертью (Wrapped Up in Death).
20). Запоздалый удар (The Late Shaft).
21). Воровское логово (Den of Thieves).
22). Съесть и умереть (Food to Die For).
23). Крайность (Overkill).
24). Смертельная игра (A Deadly Game).
1). Смертельная связь (A Deadly Affair)
2). Он мертв, она мертва (He's Dead, She's Dead)
3). Под обстрелом (Under the Gun)
4). В стиле "Стимпанк" (Punked)
5). Анатомия убийства (Anatomy of a Murder)
6). 3ХК (3XK)
7). Практически знаменитость (Almost Famous)
8). Убийство с пером (Murder Most Fowl)
9). Близкие контакты убийственного рода (Close Encounters of the Murderous Kind)
10). Последний шанс (Last Call)
11). Никки Жара (Nikki Heat)
12). Пиф-паф, ты мертв (Poof, You're Dead)
13). Нокдаун (Knockdown)
14). Везучий мертвец (Lucky Stiff)
15). Последний гвоздь (The Final Nail)
16). Подстава (Setup)
17). Обратный отсчет (Countdown)
18). Одной жизнью меньше (One Life to Lose)
19). Закон и убийство (Law & Murder)
20). Ломтик смерти (Slice of Death)
21). В мертвом омуте...(The Dead Pool)
22). Полюбить и умереть в Лос-Анджелесе (To Love and Die in L.A.)
23). Мертвая красавица (Pretty Dead)
24). Последний удар (Knockout)


Трекер:  [ 24-Дек-2012 12:34 ]

  

Скачать .torrent

Размер .torrent файла 42 KB


Размер: 13.96 GB
Хэш (hash) релиза: 0101ab7fefa77fd49e992407b3ac4691d66579b3

Еще никто не оставлял запись к записи скачать торрент [SERIAL] Касл Castle . Будь первым!

!Обратная связь