The Voice 8 29 2012 July 9 2012 July 15 zno | Vers un film METROID ? | PAUSE CAFAY #120 | McMafia (2018 - ongoing) RATING 7.7 / 10 QUALITY

Скачать через торрент [SERIAL] Эврика Eureka бесплатно русская версия torrent активатор

Статистика раздачи
Размер:  13.42 GB   |    Зарегистрирован:  5 лет 6 месяцев   |    .torrent скачан:  35 раз   |   
Раздают:  1  
   
загрузка...
 
Автор Сообщение

Galfimbul

avatar Galfimbul


Эврика / Eureka

Год выпуска: 2012

Страна: США
Жанр: Фантастика, Комедия
Продолжительность: 00:43:00
Перевод: Профессиональный (многоголосый, студия "Кравец")
Русские субтитры: нет
Режиссер: Matthew Hastings, Michael Robison, Mike Rohl, Jaime Paglia, Salli Richardson-Whitfield, Co
В ролях: Colin Ferguson, Salli Richardson-Whitfield, Joe Morton, Erica Cerra, Neil Grayston, Niall Matter и др.
Описание: Поскольку Вторая Мировая Война закончилась уничтожением Хиросимы и Нагасаки, наука и изобретения стали приоритетными во всем мире. Америка чуть не проиграла гонку с атомными бомбами; это не должно повториться. С помощью Альберта Эйнштейна и других доверенных советников, Президент Гарри С. Труман уполномочил начать заселение удаленной области Тихоокеанского Северо-запада, чтобы сохранить интеллектуальные ценности Америки. Там величайшие умы, вундеркинды, были бы в состоянии жить и работать в благосклонной окружающей среде. Лучшие архитекторы и планировщики были уполномочены построить такое место для этих превосходных гениев, где бы они жили и имели лучшее образование для своих детей, лучшую систему здравоохранения, все для комфортного проживания жизни. Это общество жило бы так же, как все, но с небольшим различием: этот город не обозначен ни на одной карте. О нем никто не знает, кроме Пентагона. Так появился город Эврика. Но в этом маленьком городе все совсем не так, как в других маленьких городах. Большинство «квантовых прыжков» в науке и технике в течение 50 лет было произведено именно элитными исследователями из Эврики. К сожалению, научные исследования всегда непредсказуемы, и годы экспериментов привели к некоторым побочным явлениям. От невостребованной любви до профессиональной ревности, от склонности до депрессии, проблемы горожан Эврики увеличиваются с каждым днем. Но с уникальными талантами населения и безграничными ресурсами, эти провинциальные проблемы могут стать большими проблемами. Именно там, где человеческая непрочность и супернаука сталкиваются, Эврика начинается…
Качество: WEB-DLRip
Формат: MP4
Видео кодек: H.264
Аудио кодек: MP3
Видео: MPEG4 Video (H264); 480x272 (16:9); 449 kbps; 24.00fps
Аудио: AAC 44100Hz stereo 126 kbps
ОбщееПолное имя : ...\Eureka [season 5, 480x272, mp4]\Eureka.s05e01.mp4Формат : MPEG-4Профиль формата : Base Media / Version 2Идентификатор кодека : mp42Размер файла : 177 МбайтПродолжительность : 43 м.Режим общего битрейта : ПеременныйОбщий поток : 571 Кбит/секДата кодирования : UTC 2012-11-27 21:23:55Дата пометки : UTC 2012-11-27 21:23:56Программа кодирования : mp4creator 1.4.4

ВидеоИдентификатор : 1Формат : AVCФормат/Информация : Advanced Video CodecПрофиль формата : <a href="mailto:[email protected]Параметр" class="postLink">[email protected]Параметр</a> CABAC формата : НетПараметр ReFrames формата : 2 кадраИдентификатор кодека : avc1Идентификатор кодека/Информация : Advanced Video CodingПродолжительность : 43 м.Вид битрейта : ПеременныйБитрейт : 443 Кбит/секШирина : 480 пикселейВысота : 272 пикселяСоотношение сторон : 16:9Режим частоты кадров : ПостоянныйЧастота кадров : 24,000 кадра/секЦветовое пространство : YUVСубдискретизация насыщенности : 4:2:0Битовая глубина : 8 битТип развёртки : ПрогрессивнаяБит/(Пиксели*Кадры) : 0.141Размер потока : 137 Мбайт (78%)Язык : EnglishДата кодирования : UTC 2012-11-27 21:23:55Дата пометки : UTC 2012-11-27 21:23:56

АудиоИдентификатор : 2Формат : AACФормат/Информация : Advanced Audio CodecПрофиль формата : LCИдентификатор кодека : 40Продолжительность : 43 м.Продолжительность оригинала : 43 м.Вид битрейта : ПеременныйБитрейт : 126 Кбит/секМаксимальный битрейт : 167 Кбит/секКаналы : 2 каналаРасположение каналов : Front: L RЧастота : 44,1 КГцМетод сжатия : С потерямиРазмер потока : 38,9 Мбайт (22%)Размер потока оригинала : 38,9 Мбайт (22%)Язык : EnglishДата кодирования : UTC 2012-11-27 21:23:56Дата пометки : UTC 2012-11-27 21:23:56
01. Пропавшие (Lost)
02. Все по-настоящему (The Real Thing)
03. Выход силой (Force Quit)
04. Дружественный огонь (Friendly Fire)
05. Джек на все руки (Jack of All Trades)
06. Худший вариант (Worst Case Scenario)
07. Из машины (Ex Machina)
08. В бездне (In Too Deep)
09. Умник Картер (Smarter Carter)
10. Молодожёны (The Honeymooners)
11. Зеркало, зеркало (Mirror, Mirror)
12. Не верь глазам своим (Double-Take)
13. Новый день (Just Another Day...)
Не забываем нажать на "Спасибо"!

Трекер:  [ 24-Дек-2012 12:34 ]

  

Скачать .torrent

Размер .torrent файла 40 KB


Размер: 13.42 GB
Хэш (hash) релиза: 93ea105922665f0ee973d9e6f7c64b698912bb5b

Еще никто не оставлял запись к записи скачать торрент [SERIAL] Эврика Eureka . Будь первым!

!Обратная связь