Historie | Osuna - I Can Feel My Blood Pumpin | The Lion and t season 04 episode 02

Скачать через торрент [VIDEO] 13 убийц Тринадцать убийц бесплатно русская версия torrent активатор

Статистика раздачи
Размер:  455 MB   |    Зарегистрирован:  5 лет 7 месяцев   |    .torrent скачан:  39 раз   |   
Раздают:  1  
   
загрузка...
 
Автор Сообщение

Galfimbul

avatar Galfimbul



13 убийц / Тринадцать убийц
Jusan-nin no shikaku / 13 assassins

Год выпуска: 2010
Производство: Asahi Broadcasting Corporation (ABC), Dentsu
Страна: Япония, Великобритания

Жанр: Самурайская драма
Продолжительность: 02:21:51
Перевод: Авторский закадровый (Юрий Сербин)

Режиссер: Такаси Миике / Takashi Miike
Сценарий: Канео Икегами, Дайскэ Тэнган
Продюсер: Минами Ичикава, Toichiro Shiraishi, Michihiko Yanagisawa
Оператор: Нобуясу Кита

В ролях: Кодзи Якусё, Такаюки Ямада, Юсуке Исейа, Горо Инагаки, Микидзиро Хира, Хироки Мацуката, Икки Савамура, Арата Фурута, Цуеши Ихара

Описание: Действие ленты помещено в эпоху сегунов, а расскажет картина о тайной миссии неких 13 убийц уничтожить злого правителя, выполнить которую оказывается не так-то просто, поскольку численность телохранителей этого злодея в десять раз превосходит количество людей, покушающихся на его жизнь.

Рейтинг
Бюджет: $6 000 000
Сборы в США: $802 778
Сборы в мире: + $16 752 363 = $17 555 141

Качество: HDRip
Энкодер: nmd
Формат: 3gp
Видео: 320x136, 350 Kbps at 23.976 fps
Аудио : Russian: AAC, 128 Kbps, 48.0 KHz, 2 channels |Авторский закадровый, Сербин Юрий|
за Юрия Сербина спасибо Lizing48 и
Такаси Миике — чрезвычайно плодовитый режиссёр, его имя прилагается к более чем 80 фильмам, начиная с дебюта в начале 90-х. В своих работах, он бродит от жанра к жанру. Вот и один из его последних фильмов «13 убийц», который является римейком одноимённой работы 1963 года, не стал исключением. Сюжет далеко не новый для жанра, более того скорее традиционный для данного периода. Располагаясь в сравнительно мирную эпоху, один из героев задаётся вопросом: «Сколько среди нас самураев, использовавших хоть раз свой меч на практике?», Миике отчасти отдаёт должное уважение последним дням существования Сёгунатов и конечно самураев, изживших себя с приходом огнестрельного оружия, которые были своего рода наёмниками с честью, сыграв, безусловно, важную роль в истории Японии. Вся эта ностальгия, отображена на экране, на примере горстки одиночек, преследующих благородную миссию, для достижения которой, необходимо бороться или умереть, тем самым пытаясь внушить идею о том, что до тех пор, пока существуют хорошие люди, способные делать правильные вещи и готовые идти на жертву ради общего блага, есть шанс на спокойную жизнь.

«13 убийц» — это поэзия насилия и элегантная хореография меча, дающая должное периоду и выполненная в духе «Семь самураев» Акиры Куросавы. «13 убийц» — это как просмотр затяжной шахматной партии с изысканным окончательным шагом, который по началу выглядит немного медленным, но подходя к финальной сцене баталий, длящейся без малого 30 минут экранного времени, набирает обороты вихря из крови, лезвий и славы.

General
Complete name : U:\HD\nevermnd\Тринадцать убийц (13 assassins.Extended).2010.BDRip.mobile.-nmd.3gp
Format : MPEG-4
Format profile : 3GPP Media Release 5
Codec ID : 3gp5
File size : 455 MiB
Duration : 2h 21mn
Overall bit rate mode : Variable
Overall bit rate : 448 Kbps
Encoded date : UTC 2011-10-24 19:51:56
Tagged date : UTC 2011-10-24 19:51:56

Video
ID : 1
Format : MPEG-4 Visual
Format profile : Advanced [email protected]
Format settings, BVOP : No
Format settings, QPel : No
Format settings, GMC : No warppoints
Format settings, Matrix : Default (H.263)
Codec ID : 20
Duration : 2h 21mn
Bit rate mode : Variable
Bit rate : 350 Kbps
Maximum bit rate : 1 962 Kbps
Width : 320 pixels
Height : 136 pixels
Display aspect ratio : 2.35:1
Frame rate mode : Variable
Frame rate : 14.925 fps
Original frame rate : 15.000 fps
Minimum frame rate : 0.250 fps
Maximum frame rate : 15.000 fps
Color space : YUV
Chroma subsampling : 4:2:0
Bit depth : 8 bits
Scan type : Progressive
Compression mode : Lossy
Bits/(Pixel*Frame) : 0.539
Stream size : 355 MiB (78%)
Writing library : XviD 1.2.1 (UTC 2008-12-04)
Encoded date : UTC 2011-10-24 19:51:56
Tagged date : UTC 2011-10-24 19:52:32

Audio
ID : 2
Format : AAC
Format/Info : Advanced Audio Codec
Format profile : LC
Codec ID : 40
Duration : 2h 21mn
Bit rate mode : Variable
Bit rate : 96.0 Kbps
Maximum bit rate : 132 Kbps
Channel(s) : 2 channels
Channel positions : Front: L R
Sampling rate : 48.0 KHz
Compression mode : Lossy
Stream size : 97.1 MiB (21%)
Encoded date : UTC 2011-10-24 19:52:26
Tagged date : UTC 2011-10-24 19:52:32


Трекер:  [ 22-Дек-2012 12:56 ]

  

Скачать .torrent

Размер .torrent файла 18 KB


Размер: 455 MB
Хэш (hash) релиза: 5bc93d15b13b30f10dd6bb7c45e63bc917f0585d

Еще никто не оставлял запись к записи скачать торрент [VIDEO] 13 убийц Тринадцать убийц . Будь первым!

!Обратная связь