2 апреля 2018
Astarotte's Toy

Скачать через торрент музыку The Royals - Dubbing With The Royals - 2004, FLAC бесплатно без регистрации torrent

Статистика раздачи
Размер:  377 MB   |    Зарегистрирован:  5 лет 5 месяцев   |    .torrent скачан:  42 раза   |   
Раздают:  1  
   
загрузка...
 
Автор Сообщение

Galfimbul

avatar Galfimbul


The Royals / Dubbing With The Royals

Жанр: dub, roots dub
Страна-производитель диска: UK
Год издания: 2004
Издатель (лейбл): Pressure Sounds
Номер по каталогу: PSCD 44
Страна: jamaica, UK
Аудиокодек: FLAC (*.flac)
Тип рипа: tracks
Битрейт аудио: lossless
Продолжительность: 67m
Источник (релизер): wata
Наличие сканов в содержимом раздачи: нет
Треклист:

1. Negusa Nagast (Featuring Knowledge & Prince Far I)
2. Nose Hole
3. Waizero
4. Wigwam
5. Llongo
6. Pride Of A Black Man
7. Monkey Fashion I Roy
8. Land Of Milk & Honey
9. Manna From The Sky
10. Peace, Love And Dub
11. Tirang
12. Tekla
13. Mia
14. Jemima Antonia Dub
15. Sugar Candy I Roy
16. Oongaan
17. Janhoi (Featuring Knowledge & Prince Far I)
18. Jammy’s Dub
19. Dub The Wrong

Только ленивый не отметился на этом диске.

Рутсовый, приятный саунд, пленка шипит, все дела.

Artwork By [Design] – Rachael
Bass – Aston "Family Man" Barrett, Earl "Bagga" Walker*, Berthram "Harry" Johnson, Errol "Flabba" Holt, George "Fully" Fullwood*, Lloyd Parks, Rasta Robbie, Robbie Shakespeare
Coordinator [Project Co-ordination] – Pete Holdsworth
Design – Ben*
Drums – Benbow Creary*, Carlton "Santa" Davis, Eric "Fish" Clarke, Fil Callender*, Leroy "Horsemouth" Wallace, Lowell "Sly" Dunbar*
Engineer – Anthony "Soljie" Hamilton*, Carlton Lee, Dennis Thompson, Ernest Hookim, Errol Thompson, Karl Pitterson, Maxie*, Osbourne "King Tubby" Ruddock*, Overton "Scientist" Brownie*, Sid Bucknor, Sylvan Morris, Winston "Professor" Brown
Guitar – Albert Griffiths, Earl "Chinna" Smith, Ernest Ranglin, Geoffrey Chung, Hux Brown, Gitsy*, Noel "Sowell Radics" Bailey*, Rad "Duggie" Bryan*, Tony Chin
Liner Notes – Harry Hawke
Mastered By – Dave Blackman*
Organ – Ansel Collins, Earl "Wire" Lindo, Ossie Hibbert, Winston Wright
Other [Spiritual Guidance] – Anesta Brown
Percussion – Noel "Skully" Simms*, Uziah "Sticky" Thompson
Photography – Dave Hendley
Piano – Bernard "Touter" Harvey, Bobby Kalphat, Gladstone "Gladdy" Anderson*, Lloyd Charmers, Pablove Black*, Robert "Robbie" Lynn*
Saxophone [Alto] – Herman Marquis
Saxophone [Tenor] – Richard "Dirty Harry" Hall, Tommy McCook
Trombone – Vincent "Don D Junior" Gordon*
Trumpet – Bobby Ellis
Written-By, Arranged By, Producer – Roy Cousins
Exact Audio Copy V0.99 prebeta 5 from 4. May 2009

EAC extraction logfile from 7. July 2011, 19:04

The Royals / Dubbing With The Royals

Used drive : HL-DT-STDVD-RAM GH22NP20 Adapter: 0 ID: 1

Read mode : SecureUtilize accurate stream : YesDefeat audio cache : YesMake use of C2 pointers : No

Read offset correction : 102Overread into Lead-In and Lead-Out : NoFill up missing offset samples with silence : YesDelete leading and trailing silent blocks : NoNull samples used in CRC calculations : YesUsed interface : Native Win32 interface for Win NT & 2000Gap handling : Appended to previous track

Used output format : User Defined EncoderSelected bitrate : 768 kBit/sQuality : HighAdd ID3 tag : NoCommand line compressor : C:\Program Files\Exact Audio Copy\Flac\flac.exeAdditional command line options : -V -8 -T "artist=%a" -T "title=%t" -T "album=%g" -T "date=%y" -T "tracknumber=%n" -T "genre=%m" %s

TOC of the extracted CD

Track | Start | Length | Start sector | End sector --------------------------------------------------------- 1 | 0:00.00 | 4:28.48 | 0 | 20147 2 | 4:28.48 | 3:36.54 | 20148 | 36401 3 | 8:05.27 | 3:20.45 | 36402 | 51446 4 | 11:25.72 | 3:04.20 | 51447 | 65266 5 | 14:30.17 | 3:33.07 | 65267 | 81248 6 | 18:03.24 | 3:51.38 | 81249 | 98611 7 | 21:54.62 | 3:47.27 | 98612 | 115663 8 | 25:42.14 | 3:50.53 | 115664 | 132966 9 | 29:32.67 | 4:57.74 | 132967 | 155315 10 | 34:30.66 | 2:53.45 | 155316 | 168335 11 | 37:24.36 | 3:32.44 | 168336 | 184279 12 | 40:57.05 | 3:36.30 | 184280 | 200509 13 | 44:33.35 | 2:40.64 | 200510 | 212573 14 | 47:14.24 | 4:52.54 | 212574 | 234527 15 | 52:07.03 | 3:04.02 | 234528 | 248329 16 | 55:11.05 | 3:13.33 | 248330 | 262837 17 | 58:24.38 | 3:10.05 | 262838 | 277092 18 | 61:34.43 | 3:18.59 | 277093 | 292001 19 | 64:53.27 | 2:51.04 | 292002 | 304830

Track 1

Filename H:\Flac\Reggae\Royals - Dubbing With The Royals\(01) Negusa Nagast Featuring Knowledge & Prince Far I (If You Want Good) - The Royals-2004.wav

Pre-gap length 0:00:02.00

Peak level 99.3 % Track quality 99.9 % Test CRC 25BE7213 Copy CRC 25BE7213 Accurately ripped (confidence 3) [FDACB2AF] Copy OK

Track 2

Filename H:\Flac\Reggae\Royals - Dubbing With The Royals\(02) Nose Hole (If You Want Good) - The Royals-2004.wav

Pre-gap length 0:00:01.74

Peak level 99.4 % Track quality 100.0 % Test CRC 7FE273E4 Copy CRC 7FE273E4 Accurately ripped (confidence 3) [9F12DA6F] Copy OK

Track 3

Filename H:\Flac\Reggae\Royals - Dubbing With The Royals\(03) Waizero (Facts Of Life) - The Royals-2004.wav

Pre-gap length 0:00:01.76

Peak level 99.4 % Track quality 100.0 % Test CRC 312916C3 Copy CRC 312916C3 Accurately ripped (confidence 3) [693C5D61] Copy OK

Track 4

Filename H:\Flac\Reggae\Royals - Dubbing With The Royals\(04) Wigwam (Blacker Black) - The Royals-2004.wav

Pre-gap length 0:00:01.76

Peak level 99.4 % Track quality 99.9 % Test CRC 4863C7BF Copy CRC 4863C7BF Accurately ripped (confidence 3) [810AEF28] Copy OK

Track 5

Filename H:\Flac\Reggae\Royals - Dubbing With The Royals\(05) Llongo (Pick Up The Pieces) - The Royals-2004.wav

Pre-gap length 0:00:01.76

Peak level 99.5 % Track quality 100.0 % Test CRC 8F6C10A1 Copy CRC 8F6C10A1 Accurately ripped (confidence 3) [85099BCE] Copy OK

Track 6

Filename H:\Flac\Reggae\Royals - Dubbing With The Royals\(06) Gladstone 'Gladdy' Anderson , Pride Of A Black Man (Pick Up The Pieces) - The Royals-2004.wav

Pre-gap length 0:00:01.76

Peak level 99.4 % Track quality 100.0 % Test CRC 2D0CDD03 Copy CRC 2D0CDD03 Accurately ripped (confidence 3) [B7777C3D] Copy OK

Track 7

Filename H:\Flac\Reggae\Royals - Dubbing With The Royals\(07) I Roy , Monkey Fashion (Pick Up The Pieces) - The Royals-2004.wav

Pre-gap length 0:00:01.76

Peak level 100.0 % Track quality 100.0 % Test CRC A9F860CE Copy CRC A9F860CE Accurately ripped (confidence 3) [F459C2F6] Copy OK

Track 8

Filename H:\Flac\Reggae\Royals - Dubbing With The Royals\(08) Land Of Milk & Honey (Promised Land) - The Royals-2004.wav

Pre-gap length 0:00:01.76

Peak level 99.4 % Track quality 100.0 % Test CRC C7F94617 Copy CRC C7F94617 Accurately ripped (confidence 3) [DF658403] Copy OK

Track 9

Filename H:\Flac\Reggae\Royals - Dubbing With The Royals\(09) Manna From The Sky (Malnutrition) - The Royals-2004.wav

Pre-gap length 0:00:01.76

Peak level 99.4 % Track quality 100.0 % Test CRC 389DE53D Copy CRC 389DE53D Accurately ripped (confidence 3) [7A1BC824] Copy OK

Track 10

Filename H:\Flac\Reggae\Royals - Dubbing With The Royals\(10) Peace, Love & Dub (Peace & Love) - The Royals-2004.wav

Pre-gap length 0:00:01.76

Peak level 99.5 % Track quality 100.0 % Test CRC 645FF484 Copy CRC 645FF484 Accurately ripped (confidence 3) [CDA6C319] Copy OK

Track 11

Filename H:\Flac\Reggae\Royals - Dubbing With The Royals\(11) Tirang (Only For A Time) - The Royals-2004.wav

Pre-gap length 0:00:01.77

Peak level 99.3 % Track quality 100.0 % Test CRC 657C2E35 Copy CRC 657C2E35 Accurately ripped (confidence 3) [4E06E4A9] Copy OK

Track 12

Filename H:\Flac\Reggae\Royals - Dubbing With The Royals\(12) Tekla (Sufferer Of The Ghetto) - The Royals-2004.wav

Pre-gap length 0:00:01.76

Peak level 99.3 % Track quality 100.0 % Test CRC E24EACE2 Copy CRC E24EACE2 Accurately ripped (confidence 3) [BB9739F4] Copy OK

Track 13

Filename H:\Flac\Reggae\Royals - Dubbing With The Royals\(13) Mia (Way Of Life - Gregory Isaacs) - The Royals-2004.wav

Pre-gap length 0:00:01.76

Peak level 99.4 % Track quality 100.0 % Test CRC E8B9838B Copy CRC E8B9838B Accurately ripped (confidence 3) [77E6639E] Copy OK

Track 14

Filename H:\Flac\Reggae\Royals - Dubbing With The Royals\(14) Jemima Antonia Dub (Oh My Love) - The Royals-2004.wav

Pre-gap length 0:00:01.76

Peak level 99.4 % Track quality 100.0 % Test CRC ACAE9B97 Copy CRC ACAE9B97 Accurately ripped (confidence 3) [C3B77CFD] Copy OK

Track 15

Filename H:\Flac\Reggae\Royals - Dubbing With The Royals\(15) I Roy , Sugar Candy (Ghetto Man) - The Royals-2004.wav

Pre-gap length 0:00:01.76

Peak level 99.3 % Track quality 100.0 % Test CRC AAAF9B46 Copy CRC AAAF9B46 Accurately ripped (confidence 3) [F1AF1A0C] Copy OK

Track 16

Filename H:\Flac\Reggae\Royals - Dubbing With The Royals\(16) Oongaan (Ghetto Man) - The Royals-2004.wav

Pre-gap length 0:00:01.76

Peak level 99.5 % Track quality 100.0 % Test CRC 3FD9BEDE Copy CRC 3FD9BEDE Accurately ripped (confidence 3) [96341D80] Copy OK

Track 17

Filename H:\Flac\Reggae\Royals - Dubbing With The Royals\(17) Janhoi Featuring Knowledge & Price Far I (Make Believe) - The Royals-2004.wav

Pre-gap length 0:00:01.76

Peak level 99.4 % Track quality 100.0 % Test CRC F390D651 Copy CRC F390D651 Accurately ripped (confidence 3) [3BFBB499] Copy OK

Track 18

Filename H:\Flac\Reggae\Royals - Dubbing With The Royals\(18) Jammy's Dub (Make Believe) - The Royals-2004.wav

Pre-gap length 0:00:01.76

Peak level 99.5 % Track quality 100.0 % Test CRC 6AD1CFBF Copy CRC 6AD1CFBF Accurately ripped (confidence 3) [53F2EE56] Copy OK

Track 19

Filename H:\Flac\Reggae\Royals - Dubbing With The Royals\(19) Dub The Wrong (When You Are Wrong) - The Royals-2004.wav

Pre-gap length 0:00:01.76

Peak level 99.5 % Track quality 100.0 % Test CRC 7CB5D09B Copy CRC 7CB5D09B Accurately ripped (confidence 3) [1F9146DF] Copy OK

All tracks accurately ripped

No errors occurred

End of status report
AUDIOCHECKER v2.0 beta (build 457) - by Dester - <a href="mailto:[email protected]" class="postLink">[email protected]</a>~~~~~~~~~~~~~~~~~~~~~~~~~~~~~~~~~~-=== DO NOT EDIT THIS FILE! ===-

Path: ...\Royals - Dubbing With The Royals

01 -=- (01) Negusa Nagast Featuring Knowledge & Prince Far I (If You Want Good) - The Royals-2004.flac -=- CDDA (100%)02 -=- (02) Nose Hole (If You Want Good) - The Royals-2004.flac -=- CDDA (100%)03 -=- (03) Waizero (Facts Of Life) - The Royals-2004.flac -=- CDDA (100%)04 -=- (04) Wigwam (Blacker Black) - The Royals-2004.flac -=- CDDA (100%)05 -=- (05) Llongo (Pick Up The Pieces) - The Royals-2004.flac -=- CDDA (100%)06 -=- (06) Gladstone 'Gladdy' Anderson , Pride Of A Black Man (Pick Up The Pieces) - The Royals-2004.flac -=- CDDA (100%)07 -=- (07) I Roy , Monkey Fashion (Pick Up The Pieces) - The Royals-2004.flac -=- CDDA (100%)08 -=- (08) Land Of Milk & Honey (Promised Land) - The Royals-2004.flac -=- CDDA (100%)09 -=- (09) Manna From The Sky (Malnutrition) - The Royals-2004.flac -=- CDDA (100%)10 -=- (10) Peace, Love & Dub (Peace & Love) - The Royals-2004.flac -=- CDDA (100%)11 -=- (11) Tirang (Only For A Time) - The Royals-2004.flac -=- CDDA (100%)12 -=- (12) Tekla (Sufferer Of The Ghetto) - The Royals-2004.flac -=- CDDA (100%)13 -=- (13) Mia (Way Of Life - Gregory Isaacs) - The Royals-2004.flac -=- CDDA (100%)14 -=- (14) Jemima Antonia Dub (Oh My Love) - The Royals-2004.flac -=- CDDA (100%)15 -=- (15) I Roy , Sugar Candy (Ghetto Man) - The Royals-2004.flac -=- CDDA (100%)16 -=- (16) Oongaan (Ghetto Man) - The Royals-2004.flac -=- CDDA (94%)17 -=- (17) Janhoi Featuring Knowledge & Price Far I (Make Believe) - The Royals-2004.flac -=- CDDA (100%)18 -=- (18) Jammy's Dub (Make Believe) - The Royals-2004.flac -=- CDDA (100%)19 -=- (19) Dub The Wrong (When You Are Wrong) - The Royals-2004.flac -=- CDDA (100%)

Summary 99,68% CDDA

92646788


Трекер:  [ 05-Ноя-2012 12:01 ]

  

Скачать .torrent

Размер .torrent файла 17 KB


Размер: 377 MB
Хэш (hash) релиза: cbc28b2b641e66ce8cdf251f1ebc2e3a288f4c2c

Еще никто не оставлял запись к записи скачать торрент The Royals - Dubbing With The Royals - 2004, FLAC . Будь первым!

!Обратная связь