Amor secreto | Download | Pierrot Plus
Статистика раздачи
Размер:  11.83 GB   |    Зарегистрирован:  5 лет 10 месяцев   |    .torrent скачан:  341 раз   |   
Раздают:  1  
   
загрузка...
 
Автор Сообщение

L


Эзель / Ezel
Год выпуска: 2009-2010
Страна: Турция
Жанр: Триллер, драма, криминал, детектив
Перевод: профессиональный многоголосый закадровый (Хабар-ТВ)
Русские субтитры: нет
Субтитры: отсутствуют

Режиссёр: Улуч Байрактар

В ролях: Кенан Имирзалыоглу, Нурхан Озенен, Джансу Дере, Сарп Аккайя, Ипек Бильгин, Иигит Озшенер, Барыш Фалай, Тунсел Куртиз, Салих Кэлион, Бейазыт Гюлерджан

Описание: Сначала был Омер. Вместе с семьей у него была своя простая жизнь. Он был счастлив. Потом он полюбил девушку. Он собирался жениться на ней, вернувшись из армии. Все было в порядке, так, как и должно быть. Но внезапно Омер оказался в тюрьме за убийство. Привычная жизнь, знакомые люди — все исчезло в мгновение ока. На их место пришел один-единственный вопрос — почему? Он жег его мозг, словно раскаленное клеймо. Его предали, подставили, с ним сыграли страшную игру. Любимая девушка Эйшан, лучший друг Дженгиз и Али, который был ему старшим братом, — все они были как-то замешаны в этом. Омер не мог найти ответы на мучавшие его вопросы, он потерял надежду… До тех пор, пока не познакомился в тюрьме с человеком, изменившим его жизнь. Омер умер в тюрьме, но родился Эзель, человек с другим лицом и другим именем. Он готов отомстить людям, отнявшим у него все, но сначала ему нужно убить внутри себя эту бесконечную, бессмертную, не отпускающую его любовь…

Доп. информация:
Перевод недостающих моментов: Байбако
Перевод: Юлия Ковалёва
Озвучка: Светлана Доманова, Татьяна Оболевич, Алексей Кузнецов и Александр Фурман
Монтаж: Татьяна Оболевич
Обложка: Татьяна Оболевич

Сэмпл:
1-ая серия: http://narod.ru/disk/44453811001.bc8096dc7a7aaa419603663a09877940/Ezel.s01e01.SATRip.Rus.BaibaKo.tv-sample.avi.html
9-ая серия: http://narod.ru/disk/44453912001.a39f2caace59a07228b7c1b33b91e7cc/Ezel.s01e09.SATRip.Rus-Tur.BaibaKo.tv-sample.avi.html
Качество: SatRip
Формат: AVI
Видео кодек: XVID
Аудио кодек: MP3
01-08,10-20 серии:
Инфо: 540 Мбайт 59 м. 23 с. 80 мс.
Видео: MPEG-4 Visual DivX 720x480 1101 Кбит/сек 25,000 кадров/сек
Аудио RUS: MPEG-1 Audio layer 3 2 канала 48,0 КГц 160 Кбит/сек CBR

09 серия:
Инфо: 772 Мбайт 56 м. 51 с. 0 мс.
Видео: MPEG-4 Visual Advanced [email protected] XviD 720x470 1500 Кбит/сек 25,000 кадров/сек
Аудио RUS: MPEG-1 Audio layer 3 2 канала 48,0 КГц 192 Кбит/сек CBR
Аудио TUR: MPEG-1 Audio layer 3 2 канала 48,0 КГц 192 Кбит/сек CBR
Релиз:
General
Complete name : ...\Ezel.s01.SATRip.XviD.BaibaKo.tv\Ezel.s01e01.SATRip.Rus.BaibaKo.tv.avi
Format : DivX
Format/Info : Hack of AVI
File size : 540 MiB
Duration : 59mn 23s
Overall bit rate : 1 270 Kbps

Video
ID : 0
Format : MPEG-4 Visual
Format settings, BVOP : 1
Format settings, QPel : No
Format settings, GMC : No warppoints
Format settings, Matrix : Default (H.263)
Muxing mode : Packed bitstream
Codec ID : DX50
Codec ID/Hint : DivX 5
Duration : 59mn 23s
Bit rate : 1 101 Kbps
Width : 720 pixels
Height : 480 pixels
Display aspect ratio : 3:2
Frame rate : 25.000 fps
Standard : NTSC
Color space : YUV
Chroma subsampling : 4:2:0
Bit depth : 8 bits
Scan type : Progressive
Compression mode : Lossy
Bits/(Pixel*Frame) : 0.127
Stream size : 468 MiB (87%)
Title : Main
Writing library : DivX 6.5.1 (UTC 2007-03)

Audio
ID : 1
Format : MPEG Audio
Format version : Version 1
Format profile : Layer 3
Mode : Joint stereo
Mode extension : MS Stereo
Codec ID : 55
Codec ID/Hint : MP3
Duration : 59mn 23s
Bit rate mode : Constant
Bit rate : 160 Kbps
Channel(s) : 2 channels
Sampling rate : 48.0 KHz
Compression mode : Lossy
Stream size : 68.0 MiB (13%)
Alignment : Split accross interleaves
Interleave, duration : 40 ms (1.00 video frame)
Interleave, preload duration : 500 ms
Title : Audio

General
Complete name : ...\Ezel.s01.SATRip.XviD.BaibaKo.tv\Ezel.s01e09.SATRip.Rus-Tur.BaibaKo.tv.avi
Format : AVI
Format/Info : Audio Video Interleave
File size : 772 MiB
Duration : 56mn 51s
Overall bit rate : 1 899 Kbps
Writing application : VirtualDubMod 1.5.10.2 (build 2540/release)
Writing library : VirtualDubMod build 2540/release

Video
ID : 0
Format : MPEG-4 Visual
Format profile : Advanced [email protected]
Format settings, BVOP : 2
Format settings, QPel : No
Format settings, GMC : No warppoints
Format settings, Matrix : Default (H.263)
Codec ID : XVID
Codec ID/Hint : XviD
Duration : 56mn 51s
Bit rate : 1 500 Kbps
Width : 720 pixels
Height : 470 pixels
Display aspect ratio : 3:2
Frame rate : 25.000 fps
Color space : YUV
Chroma subsampling : 4:2:0
Bit depth : 8 bits
Scan type : Progressive
Compression mode : Lossy
Bits/(Pixel*Frame) : 0.177
Stream size : 610 MiB (79%)
Writing library : XviD 1.2.1 (UTC 2008-12-04)

Audio #1
ID : 1
Format : MPEG Audio
Format version : Version 1
Format profile : Layer 3
Mode : Joint stereo
Mode extension : MS Stereo
Codec ID : 55
Codec ID/Hint : MP3
Duration : 56mn 51s
Bit rate mode : Constant
Bit rate : 192 Kbps
Channel(s) : 2 channels
Sampling rate : 48.0 KHz
Compression mode : Lossy
Stream size : 78.1 MiB (10%)
Alignment : Aligned on interleaves
Interleave, duration : 40 ms (1.00 video frame)
Interleave, preload duration : 504 ms
Writing library : LAME3.99r
Encoding settings : -m j -V 4 -q 3 -lowpass 18.6 -b 192

Audio #2
ID : 2
Format : MPEG Audio
Format version : Version 1
Format profile : Layer 3
Mode : Joint stereo
Mode extension : MS Stereo
Codec ID : 55
Codec ID/Hint : MP3
Duration : 56mn 51s
Bit rate mode : Constant
Bit rate : 192 Kbps
Channel(s) : 2 channels
Sampling rate : 48.0 KHz
Compression mode : Lossy
Stream size : 78.1 MiB (10%)
Alignment : Split accross interleaves
Interleave, duration : 40 ms (1.00 video frame)
Interleave, preload duration : 500 ms
Writing library : LAME3.99r
Encoding settings : -m j -V 4 -q 2 -lowpass 18.6 -b 192
1-ая серия:

9-ая серия:
Внимание! Раздача ведётся путём добавления новых серий; при каждом добавлении создётся новый торрент. Чтобы начать докачку новой серии, пользователям необходимо сделать следующее:
(1) остановить скачивание,
(2) удалить старый торрент у себя из клиента (старые серии удалять не надо),
(3) скачать новый торрент и запустить его у себя в клиенте вместо старого, при этом указать клиенту путь в старую папку куда и должно происходить скачивание новых серий.
Ваш клиент при этом должен произвести хеширование (проверку) старой папки (если не производит сам - помогите ему сделать это), и будет докачивать только те серии которых у вас ещё нет. Старые серии при этом не удаляются, а продолжают раздаваться!
Eсли вы уже удалили старые серии, то предотвратить повторную закачку старых серий можно, отжав галочку в соответсвующих местах при запуске нового торрента.


Трекер:  [ 27-Сен-2012 15:40 ]

  

Скачать .torrent

Размер .torrent файла 61 KB


Размер: 11.83 GB
Хэш (hash) релиза: 893bb5b0b1850376e8a0d970ce185399afd23a90

Еще никто не оставлял запись к записи скачать торрент Эзель Ezel . Будь первым!

!Обратная связь