Hotel 13 | One Direction - Kiss You. | The Sims 4: Deluxe Edition [v 1.31.37.1020] (2014) PC | RePack от xatab

Скачать через торрент [VIDEO] Американский пирог 1, 2, 3: Свадьба, 4: Все в сборе American Pie 1, 2, American Wedding, American Reunion бесплатно русская версия torrent активатор

Статистика раздачи
Размер:  2.83 GB   |    Зарегистрирован:  5 лет 11 месяцев   |    .torrent скачан:  257 раз   |   
Раздают:  1  
   
загрузка...
 
Автор Сообщение

Galfimbul

avatar Galfimbul


Американский пирог / American Pie
Год выпуска: 1999

Страна: США
Жанр: Комедия
Продолжительность: 01:35:37
Перевод: Профессиональный (полное дублирование)
Русские субтитры: нет

Режиссер: Пол Вайц / Paul Weitz, Крис Вайц / Chris Weitz

В ролях: Джейсон Биггз, Крис Клейн, Томас Йен Николас, Элисон Хэннигэн, Шеннон Элизабет, Тара Рейд,Эдди Кэй Томас, Шонн Уильям Скотт, Юджин Леви, Наташа Лионне

Описание: Четверо друзей заключают соглашение о том, что к выпускному вечеру каждый из них во что бы то ни стало должен лишиться девственности. В своих возмутительных попытках стать «настоящими мужчинами» парни встречают массу сюрпризов насчет своих способностей и отношений с противоположным полом.
Качество: BDRip
Формат: MP4
Видео кодек: XviD
Аудио кодек: AAC
Видео: XviD, 640x344, 1.860, 768 Kbps, 23.976 fps
Аудио: AAC, 128 Kbps, 48.0 KHz, 2 ch.
GeneralComplete name : D:\!РИПЫ\Новая папка\American Pie 1-3\American Pie (1999).mp4Format : MPEG-4Format profile : Base Media / Version 2Codec ID : mp42File size : 614 MiBDuration : 1h 35mnOverall bit rate : 898 KbpsEncoded date : UTC 2012-04-24 21:10:15Tagged date : UTC 2012-04-24 21:10:15

VideoID : 201Format : MPEG-4 VisualFormat profile : Advanced [email protected] settings, BVOP : NoFormat settings, QPel : NoFormat settings, GMC : No warppointsFormat settings, Matrix : Default (H.263)Codec ID : 20Duration : 1h 35mnBit rate mode : VariableBit rate : 769 KbpsMaximum bit rate : 3 984 KbpsWidth : 640 pixelsHeight : 344 pixelsDisplay aspect ratio : 1.860Frame rate mode : VariableFrame rate : 23.955 fpsOriginal frame rate : 23.976 fpsMinimum frame rate : 0.959 fpsMaximum frame rate : 23.976 fpsColor space : YUVChroma subsampling : 4:2:0Bit depth : 8 bitsScan type : ProgressiveCompression mode : LossyBits/(Pixel*Frame) : 0.146Stream size : 525 MiB (85%)Title : Imported with GPAC 0.4.6-DEV (build 1)Writing library : XviD 1.2.1 (UTC 2008-12-04)Encoded date : UTC 2012-04-24 21:10:15Tagged date : UTC 2012-04-24 21:10:44

AudioID : 101Format : AACFormat/Info : Advanced Audio CodecFormat profile : LCCodec ID : 40Duration : 1h 35mnBit rate mode : VariableBit rate : 128 KbpsMaximum bit rate : 149 KbpsChannel(s) : 2 channelsChannel positions : Front: L RSampling rate : 48.0 KHzCompression mode : LossyStream size : 87.4 MiB (14%)Encoded date : UTC 2012-04-24 21:10:42Tagged date : UTC 2012-04-24 21:10:44


Американский пирог 2 / American Pie 2
Год выпуска: 2001

Страна: США
Жанр: комедия
Продолжительность: 01:50:40
Перевод: Профессиональный (полное дублирование)
Русские субтитры: нет

Режиссер: Джеймс Б. Роджерс / James B. Rogers

В ролях: Джейсон Биггз / Jason Biggs, Шонн Уильям Скотт / Seann William Scott, Томас Йен Николас / Thomas Ian Nicholas, Крис Клейн / Chris Klein, Эдди Кэй Томас / Eddie Kaye Thomas, Элисон Хэннигэн / Alyson Hannigan, Шеннон Элизабет / Shannon Elizabeth, Тара Рид / Tara Reid, Наташа Лионни / Natasha Lyonne, Мена Сувари / Mena Suvari, Юджин Леви / Eugene Levy, Кейси Аффлек / Casey Affleck

Описание: Со времен первого фильма прошел год, все герои теперь учатся не в средней школе, а в колледже, и летом на каникулы решают снять загородный дом, где можно весело провести время, поваляться на пляже и погоняться за девчонками, коих там в избытке.
Впрочем, проблемы себе найдет каждый из героев: к Джиму собирается приехать та самая «студентка по обмену» Надя, с которой он публично облажался в первом фильме, Кевин понял, что просто друзьями с Викки он быть не может, а Крис никак не может заняться сексом по телефону со своей подругой Хезер, уехавшей на учебу в другой город. В довершение всего Пол Финч начал практиковать тантрический секс, считая дни до прибытия Мамы Стифлера.
Качество: BDRip
Формат: MP4
Видео кодек: XviD
Аудио кодек: AAC
Видео: XviD, 640x344, 1.860, 768 Kbps, 23.976 fps
Аудио: AAC, 128 Kbps, 48.0 KHz, 2 ch.
GeneralComplete name : D:\!РИПЫ\Новая папка\American Pie 1-3\American Pie 2 (2001).mp4Format : MPEG-4Format profile : Base Media / Version 2Codec ID : mp42File size : 711 MiBDuration : 1h 50mnOverall bit rate : 898 KbpsEncoded date : UTC 2012-04-25 02:01:38Tagged date : UTC 2012-04-25 02:01:38

VideoID : 201Format : MPEG-4 VisualFormat profile : Advanced [email protected] settings, BVOP : NoFormat settings, QPel : NoFormat settings, GMC : No warppointsFormat settings, Matrix : Default (H.263)Codec ID : 20Duration : 1h 50mnBit rate mode : VariableBit rate : 768 KbpsMaximum bit rate : 2 959 KbpsWidth : 640 pixelsHeight : 344 pixelsDisplay aspect ratio : 1.860Frame rate mode : VariableFrame rate : 23.878 fpsOriginal frame rate : 23.976 fpsMinimum frame rate : 0.773 fpsMaximum frame rate : 23.976 fpsColor space : YUVChroma subsampling : 4:2:0Bit depth : 8 bitsScan type : ProgressiveCompression mode : LossyBits/(Pixel*Frame) : 0.146Stream size : 608 MiB (85%)Title : Imported with GPAC 0.4.6-DEV (build 1)Writing library : XviD 1.2.1 (UTC 2008-12-04)Encoded date : UTC 2012-04-25 02:01:38Tagged date : UTC 2012-04-25 02:02:05

AudioID : 101Format : AACFormat/Info : Advanced Audio CodecFormat profile : LCCodec ID : 40Duration : 1h 50mnBit rate mode : VariableBit rate : 128 KbpsMaximum bit rate : 145 KbpsChannel(s) : 2 channelsChannel positions : Front: L RSampling rate : 48.0 KHzCompression mode : LossyStream size : 101 MiB (14%)Encoded date : UTC 2012-04-25 02:02:03Tagged date : UTC 2012-04-25 02:02:05


Американская Свадьба / Американский Пирог 3 / American Wedding / American Pie 3
Год выпуска: 2003

Страна: США, Германия
Жанр: комедия
Продолжительность: 01:43:23
Перевод: Профессиональный (полное дублирование)
Русские субтитры: нет

Режиссер: Джесси Дилан / Jesse Dylan

В ролях: Джейсон Биггз / Jason Biggs, Шонн Уильям Скотт / Seann William Scott, Элисон Хэннигэн / Alyson Hannigan, Эдди Кэй Томас / Eddie Kaye Thomas, Томас Йен Николас / Thomas Ian Nicholas, Джэньюэри Джонс / January Jones, Юджин Леви / Eugene Levy

Описание: Джим и Мишель решили пожениться! Ведь свадьба — штука важная, и готовиться к ней надо основательно и серьёзно, тем более, если шафером у жениха собирается стать сам Стифлер! В обширную предсвадебную программу включены: холостяцкая вечеринка со стриптизёршами; соблазнение женщин преклонного возраста в кромешной тьме; украшение свадебного торта лобковыми волосами; очередное сексуальное родео Финча с мамашей Стифлера, как, впрочем, и сам Стифлер — новоявленная гей-икона, прирождённый танцор-диско, тестостероновый титан и главная звезда торжества! Джим и Мишель приглашают Вас на свою свадьбу, скучать на которой Вам точно не придётся!
Качество: BDRip
Формат: MP4
Видео кодек: XviD
Аудио кодек: AAC
Видео: XviD, 640x272, 2.35:1, 768 Kbps, 23.976 fps
Аудио: AAC, 128 kbps, 48.0 KHz, 2 ch.
GeneralComplete name : D:\!РИПЫ\Новая папка\American Pie 1-3\American Wedding (2003).mp4Format : MPEG-4Format profile : Base Media / Version 2Codec ID : mp42File size : 664 MiBDuration : 1h 43mnOverall bit rate : 898 KbpsEncoded date : UTC 2012-04-25 06:05:29Tagged date : UTC 2012-04-25 06:05:29

VideoID : 201Format : MPEG-4 VisualFormat profile : Advanced [email protected] settings, BVOP : NoFormat settings, QPel : NoFormat settings, GMC : No warppointsFormat settings, Matrix : Default (H.263)Codec ID : 20Duration : 1h 43mnBit rate mode : VariableBit rate : 768 KbpsMaximum bit rate : 2 962 KbpsWidth : 640 pixelsHeight : 272 pixelsDisplay aspect ratio : 2.35:1Frame rate mode : VariableFrame rate : 23.694 fpsOriginal frame rate : 23.976 fpsMinimum frame rate : 0.387 fpsMaximum frame rate : 23.976 fpsColor space : YUVChroma subsampling : 4:2:0Bit depth : 8 bitsScan type : ProgressiveCompression mode : LossyBits/(Pixel*Frame) : 0.186Stream size : 568 MiB (85%)Title : Imported with GPAC 0.4.6-DEV (build 1)Writing library : XviD 1.2.1 (UTC 2008-12-04)Encoded date : UTC 2012-04-25 06:05:29Tagged date : UTC 2012-04-25 06:06:00

AudioID : 101Format : AACFormat/Info : Advanced Audio CodecFormat profile : LCCodec ID : 40Duration : 1h 43mnBit rate mode : VariableBit rate : 128 KbpsMaximum bit rate : 153 KbpsChannel(s) : 2 channelsChannel positions : Front: L RSampling rate : 48.0 KHzCompression mode : LossyStream size : 94.7 MiB (14%)Encoded date : UTC 2012-04-25 06:05:59Tagged date : UTC 2012-04-25 06:06:00


Американский пирог: Все в сборе / American Reunion
Год выпуска: 2012

Страна: США
Жанр: комедия
Продолжительность: 01:52:52
Перевод: Профессиональный (полное дублирование)
Русские субтитры: нет

Режиссер: Джон Харвитц / Jon Hurwitz, Хейден Шлоссберг / Hayden Schlossberg

В ролях: Джейсон Биггз, Элисон Хэннигэн, Крис Клейн, Томас Иэн Николас, Тара Рид, Шонн Уильям Скотт, Мена Сувари, Эдди Кэй Томас, Джон Чо, Дженнифер Кулидж

Описание: Герои «Американского пирога» встречаются вновь спустя несколько лет. Они докажут, что даже время и расстояние не в силах разрушить их дружбу. Летом 1999-го четверо мичиганских парней решили расстаться с невинностью. Прошли годы, и теперь друзья вернулись домой уже повзрослевшими, чтобы вспомнить прошлое и оторваться на полную катушку.

Качество: BDRip
Формат: MP4
Видео кодек: XviD
Аудио кодек: AAC
Видео: XviD, 640x344, 1.85:1, 998 Kbps, 23.976 fps
Аудио: AAC, 128 Kbps, 48.0 KHz, 2 ch.
GeneralComplete name : D:\!ФИЛЬМЫ\Видео для смартфона\American Pie 1-4\American Reunion (2012).mp4Format : MPEG-4Format profile : Base Media / Version 2Codec ID : mp42File size : 912 MiBDuration : 1h 53mnOverall bit rate mode : VariableOverall bit rate : 1 128 KbpsEncoded date : UTC 2012-08-09 14:14:50Tagged date : UTC 2012-08-09 14:14:50

VideoID : 201Format : MPEG-4 VisualFormat profile : Advanced [email protected] settings, BVOP : NoFormat settings, QPel : NoFormat settings, GMC : No warppointsFormat settings, Matrix : Default (H.263)Codec ID : 20Duration : 1h 53mnBit rate mode : VariableBit rate : 998 KbpsMaximum bit rate : 4 108 KbpsWidth : 640 pixelsHeight : 344 pixelsDisplay aspect ratio : 1.85:1Frame rate mode : VariableFrame rate : 23.682 fpsOriginal frame rate : 23.976 fpsMinimum frame rate : 0.106 fpsMaximum frame rate : 23.976 fpsColor space : YUVChroma subsampling : 4:2:0Bit depth : 8 bitsScan type : ProgressiveCompression mode : LossyBits/(Pixel*Frame) : 0.191Stream size : 807 MiB (88%)Writing library : XviD 1.2.1 (UTC 2008-12-04)Encoded date : UTC 2012-08-09 14:14:50Tagged date : UTC 2012-08-09 14:15:24

AudioID : 101Format : AACFormat/Info : Advanced Audio CodecFormat profile : LCCodec ID : 40Duration : 1h 52mnBit rate mode : VariableBit rate : 128 KbpsMaximum bit rate : 149 KbpsChannel(s) : 2 channelsChannel positions : Front: L RSampling rate : 48.0 KHzCompression mode : LossyStream size : 103 MiB (11%)Encoded date : UTC 2012-08-09 14:15:20Tagged date : UTC 2012-08-09 14:15:24



Трекер:  [ 10-Авг-2012 19:02 ]

  

Скачать .torrent

Размер .torrent файла 15 KB


Размер: 2.83 GB
Хэш (hash) релиза: fdb41928657375ab4c1542fa8982e1d5139e7b89

Еще никто не оставлял запись к записи скачать торрент [VIDEO] Американский пирог 1, 2, 3: Свадьба, 4: Все в сборе American Pie 1, 2, American Wedding, American Reunion . Будь первым!

!Обратная связь