Shukufuku no Campanella | Best Poetry | Serial Kisser

Скачать через торрент [VIDEO] Кин-дза-дза! бесплатно русская версия torrent активатор

Статистика раздачи
Размер:  447 MB   |    Зарегистрирован:  5 лет 11 месяцев   |    .torrent скачан:  55 раз   |   
Раздают:  1  
   
загрузка...
 
Автор Сообщение

Galfimbul

avatar Galfimbul


КИН- ДЗА- ДЗА!
2 серии

Год выпуска: 1986

Страна: СССР
Жанр: фантастика, драма, комедия
Продолжительность: 02:07:26
Перевод: Не требуется
Русские субтитры: нет
Режиссер: Георгий Данелия
В ролях: Станислав Любшин, Леван Габриадзе, Евгений Леонов, Юрий Яковлев, Анатолий Серенко, Ольга Машная, Лев Перфилов, Ирина Шмелёва, Игорь Боголюбов, Валентин Букин, Юрий Воронков, Николай Гаро, Олег Матвеев, Харий Швейц, Валентин Голубенко, Георгий Данелия, Вероника Изотова, Юрий Наумцев, Владимир Разумовский, Нина Русланова, Нина Тер-Осипян, Александра Дорохина, Геннадий Иванов, Олеся Иванова, Игорь Кан, Александр Литовкин, Виктор Маренков, Анатолий Мартынов, Виктор Махмутов, Татьяна Новицкая, Татьяна Перфильева, Людмила Солоденко, Владимир Фёдоров, Валерий Фролова, Галина Данелия-Юркова, Геннадий Ялович...

Описание: Москва, 1980-е годы. В центре города, на Калининском проспекте, босоногий человек в рваном пальто обращается к прохожим со странной просьбой: "Скажите номер вашей планеты в тентуре, или хотя бы номер галактики в спирали". Случайные прохожие, которыми волей судьбы оказались прораб Владимир Николаевич Машков (дядя Вова) и грузинский студент Гедеван (Скрипач), вступают с ним в разговор, в ходе которого незнакомец показывает небольшой прибор - "машинку перемещения". Прораб, считая, что перед ним - сумасшедший, протягивает к "машинке" руку и, несмотря на уверения незнакомца в том, что надо знать, как ей пользоваться, нажимает на ней случайно выбранную кнопку. В ту же секунду дядя Вова и Скрипач оказываются одни - в песчаной пустыне под палящим солнцем. Вначале герои думают, что они попали в Каракумы на Земле, но позже, встретившись с местными жителями, узнают, что оказались в галактике Кин-дза-дза на планете Плюк...

Качество: DVDRip
Формат: MP4
Видео кодек: XviD
Аудио кодек: AAC
Видео: XviD, 320x240, (4:3), 360 Kbps, 25.000fps
Аудио: AAC, 128 kbps, 48 KHz, 2 ch
C:\Users\Слониха\Downloads\Мои раздачи\Kin-dza-dza!.1986.DVDRip-AVC.2s.mp4 General Complete name : C:\Users\Слониха\Downloads\Мои раздачи\Kin-dza-dza!.1986.DVDRip-AVC.2s.mp4 Format : MPEG-4 Format profile : Base Media / Version 2 Codec ID : mp42 File size : 224 MiB Duration : 1h 3mn Overall bit rate mode : Variable Overall bit rate : 490 Kbps Encoded date : UTC 2012-08-07 17:05:52 Tagged date : UTC 2012-08-07 17:05:52 Video #201 ID : 201 Format : MPEG-4 Visual Format profile : Advanced [email protected] Format settings, BVOP : No Format settings, QPel : No Format settings, GMC : No warppoints Format settings, Matrix : Default (H.263) Codec ID : 20 Duration : 1h 3mn Bit rate mode : Variable Bit rate : 360 Kbps Maximum bit rate : 1 246 Kbps Width : 320 pixels Height : 240 pixels Display aspect ratio : 4:3 Frame rate mode : Variable Frame rate : 25.000 fps Minimum frame rate : 6.250 fps Maximum frame rate : 25.000 fps Color space : YUV Chroma subsampling : 4:2:0 Bit depth : 8 bits Scan type : Progressive Compression mode : Lossy Bits/(Pixel*Frame) : 0.187 Stream size : 164 MiB (73%) Writing library : XviD 1.2.1 (UTC 2008-12-04) Encoded date : UTC 2012-08-07 17:05:52 Tagged date : UTC 2012-08-07 17:06:01 Audio #101 ID : 101 Format : AAC Format/Info : Advanced Audio Codec Format profile : LC Codec ID : 40 Duration : 1h 3mn Bit rate mode : Variable Bit rate : 128 Kbps Maximum bit rate : 151 Kbps Channel(s) : 2 channels Channel positions : Front: L R Sampling rate : 48.0 KHz Compression mode : Lossy Stream size : 58.4 MiB (26%) Encoded date : UTC 2012-08-07 17:06:00 Tagged date : UTC 2012-08-07 17:06:01




Трекер:  [ 10-Авг-2012 18:54 ]

  

Скачать .torrent

Размер .torrent файла 18 KB


Размер: 447 MB
Хэш (hash) релиза: bfa4097646816a8cd32ff0c467732858e5edbe82

Торренты, похожие на [VIDEO] Кин-дза-дза! скачать торрент

Форум Название Автор Размер S L Добавлен
Видео (Фильмы/Клипы) ·· [VIDEO] Кин-дза-дза! (Георгий Данелия) [1986, фантастика, драма, комедия, HDRip] [MP4, 480x] Galfimbul 616471756588 MB 0 0 1493277420

10:17

27-Апр-17

Видео (Фильмы/Клипы) ·· [VIDEO] Кин-дза-дза! (Георгий Данелия) [1986, фантастика, драма, комедия, BDRip] [MP4, 960x] Galfimbul 17487135241.63 GB 0 0 1493223162

19:12

26-Апр-17

Еще никто не оставлял запись к записи скачать торрент [VIDEO] Кин-дза-дза! . Будь первым!

!Обратная связь