Auto Plus France – 06 juillet 2018 | Craig Of The ... | Русские мультфильмы

Скачать через торрент [VIDEO] Сердцеедки Heartbreakers бесплатно русская версия torrent активатор

Статистика раздачи
Размер:  433 MB   |    Зарегистрирован:  5 лет 11 месяцев   |    .torrent скачан:  60 раз   |   
Раздают:  1  
   
загрузка...
 
Автор Сообщение

Galfimbul

avatar Galfimbul


Сердцеедки / Heartbreakers
Год выпуска: 2001

Страна: США
Жанр: Комедия, мелодрама, криминал
Продолжительность: 02:03:26
Перевод: Профессиональный (полное дублирование)
Русские субтитры: нет
Режиссер: Дэвид Миркин / David Mirkin
В ролях: Сигурни Уивер, Дженнифер Лав Хьюитт, Рэй Лиотта, Джейсон Ли, Энн Бэнкрофт, Джеффри Джонс, Джин Хэкмен, Нора Данн, Хулио Оскар Мечосо, Рикки Джей

Описание: Очаровательная интриганка Макс Коннерс и ее прилежная ученица (она же — дочь) Пейдж — отличная команда. Некоторые матери учат своих дочерей музыке, танцам и этикету, а Макс передала Пейдж все, что узнала сама за многие годы об авантюрах, мошенничестве и обольщении. Отсутствие капитала, по их мнению, — лишь временное явление, легко поправимое при помощи мужчин.
Ничего не подозревающие, хорошо обеспеченные жертвы быстро попадаются в коварные сети прекрасных обманщиц. Результат — легкая и беззаботная жизнь на деньги очередного одураченного простофили, лишившегося значительной части своих средств.
И все было бы хорошо, но однажды Пейдж совершила роковую ошибку влюбившись на самом деле. Ведь женское сердце не спрашивая свою хозяйку, всегда ищет настоящую любовь. Много лет назад такую же ошибку совершила и Макс.

Качество:
Формат: MP4
Видео кодек: XviD
Аудио кодек: AAC
Видео: XviD (1.2.2) 360kbps 320x136 23.976fps
Аудио: AAC 128kbps 2ch 16bit 48000khz
GeneralComplete name : C:\Users\Слониха\Downloads\Мои раздачи\Heartbreakers_2001_HDTVRip_XVID.mp4Format : MPEG-4Format profile : Base Media / Version 2Codec ID : mp42File size : 433 MiBDuration : 2h 3mnOverall bit rate mode : VariableOverall bit rate : 490 KbpsEncoded date : UTC 2012-08-08 02:36:46Tagged date : UTC 2012-08-08 02:36:46

VideoID : 201Format : MPEG-4 VisualFormat profile : Advanced [email protected] settings, BVOP : NoFormat settings, QPel : NoFormat settings, GMC : No warppointsFormat settings, Matrix : Default (H.263)Codec ID : 20Duration : 2h 3mnBit rate mode : VariableBit rate : 361 KbpsMaximum bit rate : 1 824 KbpsWidth : 320 pixelsHeight : 136 pixelsDisplay aspect ratio : 2.35:1Frame rate mode : VariableFrame rate : 23.951 fpsOriginal frame rate : 23.976 fpsMinimum frame rate : 0.705 fpsMaximum frame rate : 23.976 fpsColor space : YUVChroma subsampling : 4:2:0Bit depth : 8 bitsScan type : ProgressiveCompression mode : LossyBits/(Pixel*Frame) : 0.346Stream size : 318 MiB (74%)Writing library : XviD 1.2.1 (UTC 2008-12-04)Encoded date : UTC 2012-08-08 02:36:46Tagged date : UTC 2012-08-08 02:37:22

AudioID : 101Format : AACFormat/Info : Advanced Audio CodecFormat profile : LCCodec ID : 40Duration : 2h 2mnBit rate mode : VariableBit rate : 128 KbpsMaximum bit rate : 145 KbpsChannel(s) : 2 channelsChannel positions : Front: L RSampling rate : 48.0 KHzCompression mode : LossyStream size : 112 MiB (26%)Encoded date : UTC 2012-08-08 02:37:20Tagged date : UTC 2012-08-08 02:37:22




Трекер:  [ 10-Авг-2012 18:54 ]

  

Скачать .torrent

Размер .torrent файла 17 KB


Размер: 433 MB
Хэш (hash) релиза: 3043f3c0f4d96fca3a917d0ad0097759aa8dedac

Еще никто не оставлял запись к записи скачать торрент [VIDEO] Сердцеедки Heartbreakers . Будь первым!

!Обратная связь