Biograficzne | Season 8 Episode 12 Friends in Deed | The Other Kingdom

Скачать через торрент [SERIAL] Континуум Continuum бесплатно русская версия torrent активатор

Статистика раздачи
Размер:  1.8 GB   |    Зарегистрирован:  5 лет 11 месяцев   |    .torrent скачан:  58 раз   |   
Раздают:  1  
   
загрузка...
 
Автор Сообщение

Galfimbul

avatar Galfimbul


Континуум / Continuum

Год выпуска: 2012

Страна: США, Канада
Жанр: Триллер, Фантастика, Боевик
Продолжительность: 00:44:00
Перевод: Профессиональный (многоголосый, закадровый)
Русские субтитры: нет
Режиссер: Pat Williams, Джон Кассар, Brett Donowho
В ролях: Рейчел Николс
В роли: Рейчел Николс, Уилл Эриксон, Виктор Уэбстер, Эрик Кнудсен, Стивен Лобо, Брайан Маркинсон, David Stuart, Ричард Хэрмон, Jennifer Spence, Джон Генри Рирдон
Описание: Новый фантастический сериал начинается в отдаленном будущем, после чего плавно перетекает в наше время. Террористическое подразделение, избегая преследования, перемещаются в прошлое в 2012 год, прихватив с собой одну из самых лучших агентов полицейского подразделения по имени Киеру Кэмерон.
Киера - единственный специалист, способный противостоять группе террористов-фанатиков в прошлом. Ей на помощь приходит технический гений Сэдлер, а она сама устраивается детективом в полицейское отделение...
Качество: HDTVRip
Формат: MP4
Видео кодек: H.264
Аудио кодек: AAC
Видео: MPEG4 Video (H264); 480x272 (16:9); 459 kbps; 24.00fps
Аудио: AAC 44100Hz stereo 126 kbps
01) Прыжок во времени (A Stitch in Time)
02) Время летит (Fast Times)
03) Трата времени (Wasting Time)
04) Вопрос времени (Matter of Time)
05) Испытание временем (A Test of Time)
06) Время вышло (Time's Up)
07) Политика времени (The Politics of Time)
08) Игры со временем (Game Time)
09) Время в кругу семьи (Family Time)
10) Время вышло (End Times)
GeneralComplete name : ...\Continuum [season 1, 480x272, mp4]\Continuum.S01E01.mp4Format : MPEG-4Format profile : Base Media / Version 2Codec ID : mp42File size : 185 MiBDuration : 44mn 13sOverall bit rate : 584 KbpsEncoded date : UTC 2012-06-10 13:23:36Tagged date : UTC 2012-06-10 13:24:25Writing application : mp4creator 1.4.4

VideoID : 1Format : AVCFormat/Info : Advanced Video CodecFormat profile : <a href="mailto:[email protected]" class="postLink">[email protected]</a> settings, CABAC : NoFormat settings, ReFrames : 2 framesCodec ID : avc1Codec ID/Info : Advanced Video CodingDuration : 44mn 13sBit rate mode : VariableBit rate : 456 KbpsWidth : 480 pixelsHeight : 272 pixelsDisplay aspect ratio : 16:9Frame rate mode : ConstantFrame rate : 24.000 fpsColor space : YUVChroma subsampling : 4:2:0Bit depth : 8 bitsScan type : ProgressiveBits/(Pixel*Frame) : 0.146Stream size : 144 MiB (78%)Language : EnglishEncoded date : UTC 2012-06-10 13:23:36Tagged date : UTC 2012-06-10 13:24:15

AudioID : 2Format : AACFormat/Info : Advanced Audio CodecFormat profile : LCCodec ID : 40Duration : 44mn 12sBit rate mode : VariableBit rate : 126 KbpsMaximum bit rate : 179 KbpsChannel(s) : 2 channelsChannel positions : Front: L RSampling rate : 44.1 KHzCompression mode : LossyStream size : 39.7 MiB (21%)Language : EnglishEncoded date : UTC 2012-06-10 13:24:17Tagged date : UTC 2012-06-10 13:24:25
Внимание! Раздача ведётся путём добавления новых серий; при каждом добавлении создётся новый торрент. Чтобы начать докачку новой серии, пользователям необходимо сделать следующее: (1) остановить скачивание, (2) удалить старый торрент у себя из клиента (старые серии удалять не надо), (3) скачать новый торрент и запустить его у себя в клиенте вместо старого, при этом указать клиенту путь в старую папку куда и должно происходить скачивание новых серий.

Ваш клиент при этом должен произвести хеширование (проверку) старой папки (если не производит сам - помогите ему сделать это), и будет докачивать только те серии которых у вас ещё нет. Старые серии при этом не удаляются, а продолжают раздаваться!

Eсли вы уже удалили старые серии, то предотвратить повторную закачку старых серий можно, отжав галочку в соответсвующих местах при запуске нового торрента.

Как закачать отдельный файл из торрента или докачать ранее пропущенные файлы торрента!


Трекер:  [ 10-Авг-2012 18:53 ]

  

Скачать .torrent

Размер .torrent файла 19 KB


Размер: 1.8 GB
Хэш (hash) релиза: d2a903069dbea94aef234891097ba1787ad81849

Еще никто не оставлял запись к записи скачать торрент [SERIAL] Континуум Continuum . Будь первым!

!Обратная связь