Resident Evil 5
seth meyers 8 04 04

Скачать через торрент [SERIAL] Санта Лючия Серии: 1-8 из 8 бесплатно русская версия torrent активатор

Статистика раздачи
Размер:  1.19 GB   |    Зарегистрирован:  5 лет 8 месяцев   |    .torrent скачан:  46 раз   |   
Раздают:  1  
   
загрузка...
 
Автор Сообщение

Galfimbul

avatar Galfimbul


Санта Лючия

Год выпуска: 2012

Страна: Россия
Жанр: мелодрама, комедия
Продолжительность: 8 х ~ 00:43:00
Перевод: Не требуется
Русские субтитры: нет
Режиссер: Валерий Усков, Владимир Краснопольский

В ролях: Юлия Пересильд, Алексей Лонгин, Максим Дрозд, Всеволод Шиловский, Олеся Лесникова, Владимир Зайцев, Анастасия Боброва, Наталья Гончарова, Людмила Баталова, Александр Мариничев

Описание: Виктория Сайкина вместе со своим младшим братом Пашкой живет в небольшом провинциальном городке. Ее заветная мечта — когда-нибудь отправиться в «Санта Лючию», живописное местечко из известной песни Робертино Лоретти. Но с зарплатой продавца одежды в привокзальном магазине и необходимостью постоянно вытаскивать своего брата из разных передряг надежда на поездку в Италию с каждым днем становится для Вики все более призрачной

Качество: SATRip
Формат: MP4
Видео кодек: XviD
Аудио кодек: AAC
Видео: MPEG4, 352x192 (16/9), 25.000 fps, 359 Kbps (0.213 bit/pixel)
Аудио: AAC LC, 48.0 KHz, 2 ch, 128 Kbps, CBR

ОбщееПолное имя : Santa-Lyuchia.(01-04).mp4Формат : MPEG-4Профиль формата : Base MediaИдентификатор кодека : isomРазмер файла : 150 МбайтПродолжительность : 42 м.Общий поток : 492 Кбит/секПрограмма кодирования : XviD4PSP 6.0 / 53.6.0

ВидеоИдентификатор : 1Формат : MPEG-4 VisualПрофиль формата : [email protected]Параметр BVOP формата : НетПараметр QPel формата : НетПараметр GMC формата : Без точки переходаПараметр матрицы формата : Default (H.263)Идентификатор кодека : 20Продолжительность : 42 м.Вид битрейта : ПостоянныйБитрейт : 359 Кбит/секШирина : 352 пикселяВысота : 192 пикселяСоотношение сторон : 1,85:1Режим частоты кадров : ПостоянныйЧастота кадров : 25,000 кадров/секЦветовое пространство : YUVСубдискретизация насыщенности : 4:2:0Битовая глубина : 8 битТип развёртки : ПрогрессивнаяМетод сжатия : С потерямиБит/(Пиксели*Кадры) : 0.213Размер потока : 109 Мбайт (73%)Библиотека кодирования : XviD 64

АудиоИдентификатор : 2Формат : AACФормат/Информация : Advanced Audio CodecПрофиль формата : LCИдентификатор кодека : 40Продолжительность : 42 м.Вид битрейта : ПостоянныйБитрейт : 128 Кбит/секКаналы : 2 каналаРасположение каналов : Front: L RЧастота : 48,0 КГцМетод сжатия : С потерямиРазмер потока : 38,9 Мбайт (26%)


Трекер:  [ 10-Авг-2012 18:53 ]

  

Скачать .torrent

Размер .torrent файла 12 KB


Размер: 1.19 GB
Хэш (hash) релиза: edc913ca145de2749c650c2cabd1f79088e91ad4

Еще никто не оставлял запись к записи скачать торрент [SERIAL] Санта Лючия Серии: 1-8 из 8 . Будь первым!

!Обратная связь