Elise Gatien | Il y a quelqu'un dans la maison... | Heiter bis tödlich: Akte Ex

Скачать через торрент [SERIAL] Подземный переход Серии: 1-8 из 8 бесплатно русская версия torrent активатор

Статистика раздачи
Размер:  1.38 GB   |    Зарегистрирован:  5 лет 11 месяцев   |    .torrent скачан:  114 раз   |   
Раздают:  1  
   
загрузка...
 
Автор Сообщение

Galfimbul

avatar Galfimbul


Подземный переход

Год выпуска: 2012

Страна: Россия
Жанр: мелодрама
Продолжительность: 8 х ~ 00:45:16
Перевод: Не требуется
Русские субтитры: есть
Режиссер: Виктор Мережко
В ролях: Юлия Рудина, Варвара Щербакова, Игорь Скляр, Дмитрий Аверин, Сергей Перегудов, Владимир Кошевой, Кристина Бродская, Светлана Смирнова, Дарья Румянцева, Владимир Матвеев, Алексей Двоеглазов, Владимир Крылов
Описание: Человек идет по жизни, как по солнечной стороне улицы. Но спустившись, как ему кажется, на минуту в подземный переход, он попадает в другой мир, в котором нет места тому, что недавно составляло смысл его жизни, - семье, работе, любви... Кто-то спокойно пройдет через переход и выйдет на свет, а кто-то так и останется в этих сумерках, не найдя в себе сил преодолеть препятствия и идти дальше. Только никто не знает, когда каждый из нас окажется перед своим личным подземным переходом.
Качество: SATRip
Формат: MP4
Видео кодек: XviD
Аудио кодек: AAC
Видео: MPEG4, 320x168 (1.912), 25.000 fps, 359 Kbps (0.267 bit/pixel)
Аудио: AAC LC, 48.0 KHz, 2 ch, 128 Kbps, CBR

ОбщееПолное имя : Podzemniy.Perehod.(01).2012.mp4Формат : MPEG-4Профиль формата : Base MediaИдентификатор кодека : isomРазмер файла : 174 МбайтПродолжительность : 49 м.Общий поток : 492 Кбит/секПрограмма кодирования : XviD4PSP 6.0 / 53.6.0

ВидеоИдентификатор : 1Формат : MPEG-4 VisualПрофиль формата : [email protected]Параметр BVOP формата : НетПараметр QPel формата : НетПараметр GMC формата : Без точки переходаПараметр матрицы формата : Default (H.263)Идентификатор кодека : 20Продолжительность : 49 м.Вид битрейта : ПеременныйБитрейт : 359 Кбит/секМаксимальный битрейт : 1000 Кбит/секШирина : 320 пикселейВысота : 168 пикселейСоотношение сторон : 1,912Соотношение сторон в оригинале : 1,913Режим частоты кадров : ПостоянныйЧастота кадров : 25,000 кадров/секЦветовое пространство : YUVСубдискретизация насыщенности : 4:2:0Битовая глубина : 8 битТип развёртки : ПрогрессивнаяМетод сжатия : С потерямиБит/(Пиксели*Кадры) : 0.267Размер потока : 127 Мбайт (73%)Библиотека кодирования : XviD 64

АудиоИдентификатор : 2Формат : AACФормат/Информация : Advanced Audio CodecПрофиль формата : LCИдентификатор кодека : 40Продолжительность : 49 м.Вид битрейта : ПостоянныйБитрейт : 128 Кбит/секКаналы : 2 каналаРасположение каналов : Front: L RЧастота : 48,0 КГцМетод сжатия : С потерямиРазмер потока : 45,2 Мбайт (26%)


Трекер:  [ 10-Авг-2012 18:53 ]

  

Скачать .torrent

Размер .torrent файла 14 KB


Размер: 1.38 GB
Хэш (hash) релиза: cc8d1cf7e667bf12971f9487c32953ddbcade58f

Еще никто не оставлял запись к записи скачать торрент [SERIAL] Подземный переход Серии: 1-8 из 8 . Будь первым!

!Обратная связь