Prochain Film Streaming | Duck Dynasty | Разбитная Юля из Донецка [amateur foto] [От 4608х3456 до 1600х1200, 191 фото]

Скачать через торрент [VIDEO] Крошка Молли Lovely Molly бесплатно русская версия torrent активатор

Статистика раздачи
Размер:  711 MB   |    Зарегистрирован:  5 лет 11 месяцев   |    .torrent скачан:  37 раз   |   
Раздают:  1  
   
загрузка...
 
Автор Сообщение

Galfimbul

avatar Galfimbul


Крошка Молли / Lovely Molly
«Зло возвращается»
Год выпуска: 2011

Страна: США
Жанр: ужасы, триллер, драма
Продолжительность: 01:40:13
Перевод: Профессиональный (полное дублирование)
Русские субтитры: нет
Режиссер: Эдуардо Санчес / Eduardo Sanchez
В ролях: Гретчен Лодж, Джонни Льюис, Александра Холден, Филд Бловелт, Кен Арнольд, Тони Эллис, Лоурен Лакис, Кэти Фостер, Дэниэл Росс, Тодд Райан Джонс...
После свадьбы Молли Рейнольдс возвращается в свой давно заброшенный фамильный дом, где страшные воспоминания о кошмарах детства начинают просачиваться в ее новую жизнь. Вскоре она начинает погружаться в пучину зла, размывающего границы между психозом и одержимостью демонами…
Качество: HDRip
Формат: MP4
Видео кодек: XviD
Аудио кодек: AAC
Видео: XviD (1.2.2) 860kbps 640x360 23.976fps
Аудио: AAC 128kbps 2ch 16bit 48000khz
GeneralComplete name : C:\Users\Слониха\Downloads\Мои раздачи\Kroshka.molly.2011.D.BDRip.720p_[Youtracker].mp4Format : MPEG-4Format profile : Base Media / Version 2Codec ID : mp42File size : 711 MiBDuration : 1h 40mnOverall bit rate mode : VariableOverall bit rate : 992 KbpsEncoded date : UTC 2012-08-08 09:01:29Tagged date : UTC 2012-08-08 09:01:29

VideoID : 201Format : MPEG-4 VisualFormat profile : Advanced [email protected] settings, BVOP : NoFormat settings, QPel : NoFormat settings, GMC : No warppointsFormat settings, Matrix : Default (H.263)Codec ID : 20Duration : 1h 40mnBit rate mode : VariableBit rate : 861 KbpsMaximum bit rate : 10.7 MbpsWidth : 640 pixelsHeight : 360 pixelsDisplay aspect ratio : 16:9Frame rate mode : VariableFrame rate : 23.813 fpsOriginal frame rate : 23.976 fpsMinimum frame rate : 0.168 fpsMaximum frame rate : 23.976 fpsColor space : YUVChroma subsampling : 4:2:0Bit depth : 8 bitsScan type : ProgressiveCompression mode : LossyBits/(Pixel*Frame) : 0.157Stream size : 617 MiB (87%)Writing library : XviD 1.2.1 (UTC 2008-12-04)Encoded date : UTC 2012-08-08 09:01:29Tagged date : UTC 2012-08-08 09:02:15

AudioID : 101Format : AACFormat/Info : Advanced Audio CodecFormat profile : LCCodec ID : 40Duration : 1h 40mnBit rate mode : VariableBit rate : 128 KbpsMaximum bit rate : 149 KbpsChannel(s) : 2 channelsChannel positions : Front: L RSampling rate : 48.0 KHzCompression mode : LossyStream size : 91.7 MiB (13%)Encoded date : UTC 2012-08-08 09:02:12Tagged date : UTC 2012-08-08 09:02:15




Трекер:  [ 10-Авг-2012 18:53 ]

  

Скачать .torrent

Размер .torrent файла 14 KB


Размер: 711 MB
Хэш (hash) релиза: baaeb2ac0d49a1ae9aeb172b002164d2369a0e70

Еще никто не оставлял запись к записи скачать торрент [VIDEO] Крошка Молли Lovely Molly . Будь первым!

!Обратная связь