Pokémon / Poketto monsutâ (... | HD The Hippopotamus (2017) | Ghost in the Shell 3D BluRay 3D 1080p

Скачать через торрент [VIDEO] Терминатор 1, 2, 3, 4 Terminator 1, 2, 3, 4 бесплатно русская версия torrent активатор

Статистика раздачи
Размер:  4.12 GB   |    Зарегистрирован:  5 лет 11 месяцев   |    .torrent скачан:  235 раз   |   
Раздают:  1  
   
загрузка...
 
Автор Сообщение

Galfimbul

avatar Galfimbul


Терминатор / Terminator
Год выпуска: 1984-2009

Страна: USA
Жанр: Фантастика, Боевик, Триллер
Продолжительность: 01:47:13
Перевод: Профессиональный (многоголосый, закадровый)
Русские субтитры: нет

Режиссер: Джеймс Кэмерон / James Cameron

В ролях: Арнольд Шварценеггер, Майкл Бьен, Линда Хэмилтон, Пол Уинфилд, Лэнс Хенриксен, Эрл Боэн, Рик Россович, Дик Миллер, Франко Коламбу, Билл Пэкстон, Энтони Трухильо, Джеймс Ролстон

Описание: В 2029 году, в разгар войны между людьми и роботами, машины-убийцы с помощью суперкомпьютера «Скайнет» отправили в прошлое, в 1984 год, киборга-терминатора, который должен был убить женщину по имени Сара Коннор, чтобы не появился на свет ее сын, возглавивший в будущем восстание против роботов. Вслед за киборгом в 1984 год отправился и Кайл Рис, задача которого — остановить терминатора любой ценой!

Качество: BDRip
Формат: MP4
Видео кодек: XviD
Аудио кодек: AAC
Видео: XviD, 640x360, 16:9, 1080 Kbps, 23.976 fps
Аудио: AAC, 128 Kbps, 48.0 KHz, 2 ch.
GeneralComplete name : D:\!РИПЫ\Новая папка\Terminator 1-4\Terminator (1984).mp4Format : MPEG-4Format profile : Base Media / Version 2Codec ID : mp42File size : 928 MiBDuration : 1h 47mnOverall bit rate mode : VariableOverall bit rate : 1 210 KbpsEncoded date : UTC 2012-08-06 11:59:59Tagged date : UTC 2012-08-06 11:59:59

VideoID : 201Format : MPEG-4 VisualFormat profile : Advanced [email protected] settings, BVOP : NoFormat settings, QPel : NoFormat settings, GMC : No warppointsFormat settings, Matrix : Default (H.263)Codec ID : 20Duration : 1h 47mnBit rate mode : VariableBit rate : 1 080 KbpsMaximum bit rate : 7 547 KbpsWidth : 640 pixelsHeight : 360 pixelsDisplay aspect ratio : 16:9Frame rate mode : VariableFrame rate : 23.962 fpsOriginal frame rate : 23.976 fpsMinimum frame rate : 0.500 fpsMaximum frame rate : 23.976 fpsColor space : YUVChroma subsampling : 4:2:0Bit depth : 8 bitsScan type : ProgressiveCompression mode : LossyBits/(Pixel*Frame) : 0.196Stream size : 828 MiB (89%)Writing library : XviD 1.2.1 (UTC 2008-12-04)Encoded date : UTC 2012-08-06 11:59:59Tagged date : UTC 2012-08-06 12:00:44

AudioID : 101Format : AACFormat/Info : Advanced Audio CodecFormat profile : LCCodec ID : 40Duration : 1h 47mnBit rate mode : VariableBit rate : 128 KbpsMaximum bit rate : 177 KbpsChannel(s) : 2 channelsChannel positions : Front: L RSampling rate : 48.0 KHzCompression mode : LossyStream size : 98.2 MiB (11%)Encoded date : UTC 2012-08-06 12:00:38Tagged date : UTC 2012-08-06 12:00:44


Терминатор 2: Судный день / Terminator 2: Judgment Day [Special Edition]
Год выпуска: 1991

Страна: США
Жанр: Фантастика, Боевик, Триллер
Продолжительность: 02:33:25
Перевод: Профессиональный (многоголосый, закадровый)
Русские субтитры: нет

Режиссер: Джеймс Кэмерон / James Cameron

В ролях: Арнольд Шварценеггер, Линда Хэмилтон, Эдвард Ферлонг, Роберт Патрик, Эрл Боэн, Джо Мортон, С. Эпата Меркерсон, Кастуло Гуерра, Danny Cooksey, Дженет Голдштейн

Описание: Война роботов и людей продолжается. Казалось, что человечество обречено на полное уничтожение. Но благодаря своему лидеру Джону Коннору у сопротивления появляется шанс победить. Не имея возможности убить Джона в реальном времени, роботы отправляют в прошлое свою самую совершенную разработку – терминатора-убийцу из жидкого металла, способного принимать любое обличье.
Теперь, чтобы победить в будущем. Юному Джону Коннору надо выжить в настоящем. Его шансы существенно повышаются, когда на помощь приходит перепрограммированный сопротивлением терминатор предыдущего поколения. Оба робота вступают в смертельный бой, от исхода которого зависит судьба человечества.

Качество: BDRip
Формат: MP4
Видео кодек: XviD
Аудио кодек: AAC
Видео: XviD, 640x272, 2.35:1, 1080 Kbps, 23.976 fps
Аудио: AAC, 128 Kbps, 48.0 KHz, 2 ch.
GeneralComplete name : D:\!РИПЫ\Новая папка\Terminator 1-4\Terminator 2. Judgment Day (1991).mp4Format : MPEG-4Format profile : Base Media / Version 2Codec ID : mp42File size : 1.30 GiBDuration : 2h 33mnOverall bit rate mode : VariableOverall bit rate : 1 210 KbpsEncoded date : UTC 2012-08-07 10:28:28Tagged date : UTC 2012-08-07 10:28:28

VideoID : 201Format : MPEG-4 VisualFormat profile : Advanced [email protected] settings, BVOP : NoFormat settings, QPel : NoFormat settings, GMC : No warppointsFormat settings, Matrix : Default (H.263)Codec ID : 20Duration : 2h 33mnBit rate mode : VariableBit rate : 1 080 KbpsMaximum bit rate : 6 162 KbpsWidth : 640 pixelsHeight : 272 pixelsDisplay aspect ratio : 2.35:1Frame rate mode : VariableFrame rate : 23.927 fpsOriginal frame rate : 23.976 fpsMinimum frame rate : 0.240 fpsMaximum frame rate : 23.976 fpsColor space : YUVChroma subsampling : 4:2:0Bit depth : 8 bitsScan type : ProgressiveCompression mode : LossyBits/(Pixel*Frame) : 0.259Stream size : 1.16 GiB (89%)Writing library : XviD 1.2.1 (UTC 2008-12-04)Encoded date : UTC 2012-08-07 10:28:28Tagged date : UTC 2012-08-07 10:29:28

AudioID : 101Format : AACFormat/Info : Advanced Audio CodecFormat profile : LCCodec ID : 40Duration : 2h 33mnBit rate mode : VariableBit rate : 128 KbpsMaximum bit rate : 194 KbpsChannel(s) : 2 channelsChannel positions : Front: L RSampling rate : 48.0 KHzCompression mode : LossyStream size : 140 MiB (11%)Encoded date : UTC 2012-08-07 10:29:18Tagged date : UTC 2012-08-07 10:29:28


Терминатор 3: Восстание машин / Terminator 3: Rise of the Machines
Год выпуска: 2003

Страна: США
Жанр: Фантастика, Боевик, Триллер
Продолжительность: 01:49:06
Перевод: Профессиональный (полное дублирование)
Русские субтитры: нет

Режиссер: Джонатан Мостоу / Jonathan Mostow

В ролях: Арнольд Шварценеггер, Ник Сталь, Клер Дэйнс, Кристанна Локен, Дэвид Эндрюс, Марк Фамиглетти, Эрл Боэн, Мойра Харрис, Чоппер Бернет, Кристофер Лоуфорд, Кэролин Хеннеси, Джей Аковон, М.С. Гейни, Сьюзэн Мерсон, Элизабет Мохэд, Джимми Снайдер, Билли Д. Лукас, Брайан Сайтс, Алана Керри, Ларри МакКормик, Роберт Алонсо

Описание: Прошло десять лет с тех пор, как Джон Коннор помог предотвратить Судный День и спасти человечество от массового уничтожения. Теперь ему 25, Коннор не живет «как все» — у него нет дома, нет кредитных карт, нет сотового телефона и никакой работы. Его существование нигде не зарегистрировано. Он не может быть прослежен системой Skynet — высокоразвитой сетью машин, которые когда-то попробовали убить его и развязать войну против человечества. Пока из теней будущего не появляется T-X — Терминатрикс, самый сложный киборг-убийца Skynet. Посланная назад сквозь время, чтобы завершить работу, начатую её предшественником, T-1000, эта машина так же упорна, как прекрасен её человеческий облик. Теперь единственная надежда Коннору выжить — Терминатор, его таинственный прежний убийца. Вместе они должны одержать победу над новыми технологиями T-X и снова предотвратить Судный День…

Качество: BDRip
Формат: MP4
Видео кодек: XviD
Аудио кодек: AAC
Видео: XviD, 640x264, 2.40:1, 1080 Kbps, 23.976 fps
Аудио: AAC, 128 Kbps, 48.0 KHz, 2 ch.
GeneralComplete name : D:\!РИПЫ\Новая папка\Terminator 1-4\Terminator 3. Rise of the Machines (2003).mp4Format : MPEG-4Format profile : Base Media / Version 2Codec ID : mp42File size : 945 MiBDuration : 1h 49mnOverall bit rate mode : VariableOverall bit rate : 1 210 KbpsEncoded date : UTC 2012-08-07 16:09:30Tagged date : UTC 2012-08-07 16:09:30

VideoID : 201Format : MPEG-4 VisualFormat profile : Advanced [email protected] settings, BVOP : NoFormat settings, QPel : NoFormat settings, GMC : No warppointsFormat settings, Matrix : Default (H.263)Codec ID : 20Duration : 1h 49mnBit rate mode : VariableBit rate : 1 080 KbpsMaximum bit rate : 8 218 KbpsWidth : 640 pixelsHeight : 264 pixelsDisplay aspect ratio : 2.40:1Frame rate mode : VariableFrame rate : 23.808 fpsOriginal frame rate : 23.976 fpsMinimum frame rate : 0.118 fpsMaximum frame rate : 23.976 fpsColor space : YUVChroma subsampling : 4:2:0Bit depth : 8 bitsScan type : ProgressiveCompression mode : LossyBits/(Pixel*Frame) : 0.268Stream size : 843 MiB (89%)Writing library : XviD 1.2.1 (UTC 2008-12-04)Encoded date : UTC 2012-08-07 16:09:30Tagged date : UTC 2012-08-07 16:10:12

AudioID : 101Format : AACFormat/Info : Advanced Audio CodecFormat profile : LCCodec ID : 40Duration : 1h 49mnBit rate mode : VariableBit rate : 128 KbpsMaximum bit rate : 180 KbpsChannel(s) : 2 channelsChannel positions : Front: L RSampling rate : 48.0 KHzCompression mode : LossyStream size : 99.9 MiB (11%)Encoded date : UTC 2012-08-07 16:10:08Tagged date : UTC 2012-08-07 16:10:12


Терминатор: Да придёт спаситель / Terminator Salvation
Год выпуска: 2009

Страна: США
Жанр: Фантастика, Боевик, Триллер
Продолжительность: 01:57:31
Перевод: Профессиональный (полное дублирование)
Русские субтитры: нет

Режиссер: МакДжи / McG

В ролях: Кристиан Бэйл, Сэм Уортингтон, Антон Ельчин, Мун Бладгуд, Брайс Даллас, Ховард Коммон, Джейн Александр, Майкл Айронсайд, Иван Г’Вера, Крис Браунинг

Описание: 2018 год от рождества Христова. Джон Коннор — человек, чья судьба — возглавить Сопротивление электронному мозгу Скайнет и армии Терминаторов. Но в будущее, с верой в которое он возвращен, вклинивается таинственный Маркус Райт: незнакомец, чьи последние воспоминания рисуют камеру смертников. Коннор должен понять, кто такой Маркус — посланник будущего или спасшийся из прошлого. И на фоне подготовки Скайнетом решающего удара, Коннор и Райт отправляются в путешествие, приводящее их в самую сердцевину взбунтовавшейся операционной системы, где открывается ужасная тайна, кроющаяся за потенциальным уничтожением человечества.

Качество: BDRip
Формат: MP4
Видео кодек: XviD
Аудио кодек: AAC
Видео: XviD, 640x264, 2.40:1, 1080 Kbps, 23.976 fps
Аудио: AAC, 128 Kbps, 48.0 KHz, 2 ch.
GeneralComplete name : D:\!РИПЫ\Новая папка\Terminator 1-4\Terminator 4. Salvation (2009).mp4Format : MPEG-4Format profile : Base Media / Version 2Codec ID : mp42File size : 1 017 MiBDuration : 1h 57mnOverall bit rate mode : VariableOverall bit rate : 1 210 KbpsEncoded date : UTC 2012-08-08 09:31:01Tagged date : UTC 2012-08-08 09:31:01

VideoID : 201Format : MPEG-4 VisualFormat profile : Advanced [email protected] settings, BVOP : NoFormat settings, QPel : NoFormat settings, GMC : No warppointsFormat settings, Matrix : Default (H.263)Codec ID : 20Duration : 1h 57mnBit rate mode : VariableBit rate : 1 080 KbpsMaximum bit rate : 8 803 KbpsWidth : 640 pixelsHeight : 264 pixelsDisplay aspect ratio : 2.40:1Frame rate mode : VariableFrame rate : 23.820 fpsOriginal frame rate : 23.976 fpsMinimum frame rate : 0.289 fpsMaximum frame rate : 23.976 fpsColor space : YUVChroma subsampling : 4:2:0Bit depth : 8 bitsScan type : ProgressiveCompression mode : LossyBits/(Pixel*Frame) : 0.268Stream size : 908 MiB (89%)Writing library : XviD 1.2.1 (UTC 2008-12-04)Encoded date : UTC 2012-08-08 09:31:01Tagged date : UTC 2012-08-08 09:31:40

AudioID : 101Format : AACFormat/Info : Advanced Audio CodecFormat profile : LCCodec ID : 40Duration : 1h 57mnBit rate mode : VariableBit rate : 128 KbpsMaximum bit rate : 177 KbpsChannel(s) : 2 channelsChannel positions : Front: L RSampling rate : 48.0 KHzCompression mode : LossyStream size : 107 MiB (11%)Encoded date : UTC 2012-08-08 09:31:36Tagged date : UTC 2012-08-08 09:31:40


Трекер:  [ 10-Авг-2012 18:53 ]

  

Скачать .torrent

Размер .torrent файла 21 KB


Размер: 4.12 GB
Хэш (hash) релиза: 55c276c7a99931b20f82beea3705628ad02c8b53

Еще никто не оставлял запись к записи скачать торрент [VIDEO] Терминатор 1, 2, 3, 4 Terminator 1, 2, 3, 4 . Будь первым!

!Обратная связь