Killing Eve | Ushinawareta Mirai | Download

Скачать через торрент [MULT]Лоракс Dr. Seuss The Lorax бесплатно русская версия torrent активатор

Статистика раздачи
Размер:  276 MB   |    Зарегистрирован:  5 лет 11 месяцев   |    .torrent скачан:  41 раз   |   
Раздают:  1  
   
загрузка...
 
Автор Сообщение

Galfimbul

avatar Galfimbul



Лоракс / The Lorax
Год выпуска: 2012
Страна: США
Жанр: мультфильм, фэнтези, комедия,
Продолжительность: 01:26:18
Перевод: Профессиональный (дублированный)Лицензия
Субтитры: нет

Режиссер: Крис Рено, Кайл Балда
Сценарий: Кен Даурио, Синко Пол, Доктор Сюсс
Продюсер: Джанет Хили, Кристофер Меледандри, Кен Даурио, ...
Композитор: Джон Пауэлл
Художник: Ярроу Чейни, Эрик Гуильон
Монтаж: Клер Доджсон, Стивен Лью, Кен Шретцман

В ролях: Дэнни ДеВито (Danny DeVito), Эд Хелмс (Ed Helms), Зак Эфрон (Zac Efron), Тейлор Свифт (Taylor Swift), Бетти Уайт (Betty White), Роб Риггл (Rob Riggle), Дженни Слейт (Jenny Slate), Назим Пэдрад (Nasim Pedrad), Джоэл Светов (Joel Swetow), Майкл Битти (Michael Beattie), Дэйв Митчел (Dave Mitchell), Демпси Паппион (Dempsey Pappion), Элмари Вендел (Elmarie Wendel), Дэнни Кукси (Danny Cooksey), Стивен Тоболовски (Stephen Tobolowsky), Крис Рено (Chris Renaud), Джек Эйнджел (Jack Angel), Боб Берген (Bob Bergen), Джон Циган (John Cygan), Деби Дерриберри (Debi Derryberry)

Описание: Недалекое будущее. Стоит нажать на кнопку — и мир изменится по твоему желанию: прямо под окном вырастут горы, во дворе зашумит океан. Единственная неприятность — все вокруг сделано из пластика. Но для влюбленного нет преград. Одно желание прекрасной девушки — увидеть последнее живое дерево — и он пускается в путь.

Бюджет: $70 000 000
Сборы в США: $214 030 500
Сборы в мире: + $118 543 487 = $332 573 987
Сборы в России: $15 983 292
Зрители: Россия 2.12 млн , Испания 1.13 млн , Бразилия 737.4 тыс.
Премьера (мир): 1 марта 2012, ...
Премьера (РФ): 8 марта 2012, «UPI» 3D
Релиз на DVD: 30 августа 2012, «Двадцатый Век Фокс СНГ», ...
Релиз на Blu-Ray: 30 августа 2012, «Двадцатый Век Фокс СНГ», ...
Рейтинг MPAA: Рекомендуется присутствие родителей



Качество: BDRip
Формат: MPEG-4
Видео кодек: MPEG-4 Visual
Аудио кодеk: AAC LC
Видео: 320x176 (16:9), 15.000 fps, MPEG-4 Visual, 350 Kbps
Аудио: Аудио #1: AAC LC ~96 Kbps, 48.0 KHz, 2 ch
General
Complete name                            : The.Lorax.BDRip by semak(semak200) .3gp
Format                                   : MPEG-4
Format profile                           : 3GPP Media Release 5
Codec ID                                 : 3gp5
File size                                : 276 MiB
Duration                                 : 1h 26mn
Overall bit rate mode                    : Variable
Overall bit rate                         : 446 Kbps
Encoded date                             : UTC 2012-08-08 10:14:16
Tagged date                              : UTC 2012-08-08 10:14:16
Writing application                      : Yamb 2.1.0.0 []http://yamb.unite-video.com]
Copyright                                : semak(semak200)

Video
ID                                       : 1
Format                                   : MPEG-4 Visual
Format profile                           : Advanced [email protected]
Format settings, BVOP                    : No
Format settings, QPel                    : No
Format settings, GMC                     : No warppoints
Format settings, Matrix                  : Default (H.263)
Codec ID                                 : 20
Duration                                 : 1h 26mn
Bit rate mode                            : Variable
Bit rate                                 : 350 Kbps
Maximum bit rate                         : 2 389 Kbps
Width                                    : 320 pixels
Height                                   : 176 pixels
Display aspect ratio                     : 16:9
Frame rate mode                          : Constant
Frame rate                               : 15.000 fps
Color space                              : YUV
Chroma subsampling                       : 4:2:0
Bit depth                                : 8 bits
Scan type                                : Progressive
Compression mode                         : Lossy
Bits/(Pixel*Frame)                       : 0.415
Stream size                              : 216 MiB (79%)
Writing library                          : XviD 73
Encoded date                             : UTC 2012-08-08 10:14:16
Tagged date                              : UTC 2012-08-08 10:14:44

Audio
ID                                       : 2
Format                                   : AAC
Format/Info                              : Advanced Audio Codec
Format profile                           : LC
Codec ID                                 : 40
Duration                                 : 1h 26mn
Bit rate mode                            : Variable
Bit rate                                 : 93.6 Kbps
Maximum bit rate                         : 105 Kbps
Channel(s)                               : 2 channels
Channel positions                        : Front: L R
Sampling rate                            : 48.0 KHz
Compression mode                         : Lossy
Stream size                              : 57.7 MiB (21%)
Encoded date                             : UTC 2012-08-08 10:14:41
Tagged date                              : UTC 2012-08-08 10:14:44


Трекер:  [ 10-Авг-2012 18:40 ]

  

Скачать .torrent

Размер .torrent файла 172 KB


Размер: 276 MB
Хэш (hash) релиза: a5e9197d1e1c322c9173c50367136e721dfcd4d4

Еще никто не оставлял запись к записи скачать торрент [MULT]Лоракс Dr. Seuss The Lorax . Будь первым!

!Обратная связь