Dash Berlin | Vikings Season 4 EP1 -EP10 720p | Télécharger Part 28

Скачать через торрент Блич бесплатно Аниме Все серии на русском torrent

Статистика раздачи
Размер:  3.21 GB   |    Зарегистрирован:  5 лет 11 месяцев   |    .torrent скачан:  62 раза   |   
Раздают:  1  
   
загрузка...
 
Автор Сообщение

Galfimbul

avatar Galfimbul


Блич (фильм четвертый) / Bleach: Hell Chapter / Gekijouban Bleach: Jigoku-hen

Страна: Япония
Год выпуска: 2010 г.
Жанр: приключения, фэнтези
Тип: Movie
Продолжительность: 01:33:57
Режиссер: Абэ Нориюки
Студия: Pierrot

Описание: Ад - место, где черные от грехов души предаются смертным мукам и ужасным пыткам за совершенные при жизни преступления. Синигами запрещено связываться с Адом и на этот запрет есть много причин...
Но даже в Аду все не так хорошо. Несколько Тогабито (Brutal Prisoners или Ужасные Пленники)устраивают переворот и выбирают для себя цель - Каракуру и Куросаки Ичиго. Семья Ичиго в опасности, а Тогабито взяли заложников...
Для спасения Каракуры придется связываются с другим Тогабито - Kокуто. Он обладает чудовищной силой.
Ичиго, Рукия, Ренджи, Исида и Кокуто отправляются в Ад...

Качество: DVDRip
Тип релиза: Полухардсаб
Формат видео: MKV
Релиз/Автор рипа: le-prod
Перевод: VaLLaR

Сэмпл: http://rusfolder.tv/view_video/c458fi0lb1da

Видео: 1280x720 (16х9), H264 AVC, 23,976 кадр/сек, 4000 Кбит/сек
Аудио: AC3, 48000Hz, 5.1, 448 Kbps Язык Русский (в составе контейнера) Озвучка: Двухголосая (loster01 & Emeri)
Аудио 2: AC3, 48000Hz, 5.1, 448 Kbps Язык Японский
GeneralUnique ID : 188137423761887882412275411786144886906 (0x8D89F326A2D2F67E8CDE18FA174F307A)Complete name : D:\Мои документы\Download\torrents\[AniPower]_Bleach_Movie_4_Hell_Verse_[1280x720_x264_AC3_5.1]_[loster01_&_Emeri].mkvFormat : MatroskaFormat version : Version 2File size : 3.21 GiBDuration : 1h 33mnOverall bit rate : 4 897 KbpsEncoded date : UTC 2012-08-03 19:06:40Writing application : mkvmerge v4.5.0 ('Speed of Light') сборка от Feb 6 2011 12:51:39Writing library : libebml v1.2.0 + libmatroska v1.1.0

VideoID : 1Format : AVCFormat/Info : Advanced Video CodecFormat profile : <a href="mailto:[email protected]" class="postLink">[email protected]</a> settings, CABAC : YesFormat settings, ReFrames : 9 framesCodec ID : V_MPEG4/ISO/AVCDuration : 1h 33mnBit rate : 4 000 KbpsWidth : 1 280 pixelsHeight : 696 pixelsDisplay aspect ratio : 16:9Frame rate : 23.976 fpsColor space : YUVChroma subsampling : 4:2:0Bit depth : 8 bitsScan type : ProgressiveBits/(Pixel*Frame) : 0.187Stream size : 2.56 GiB (80%)Writing library : x264 core 116 r2074 2641b9eEncoding settings : cabac=1 / ref=9 / deblock=1:-1:-1 / analyse=0x3:0x133 / me=umh / subme=9 / psy=1 / psy_rd=0.80:0.00 / mixed_ref=1 / me_range=24 / chroma_me=1 / trellis=2 / 8x8dct=1 / cqm=0 / deadzone=21,11 / fast_pskip=1 / chroma_qp_offset=-2 / threads=3 / sliced_threads=0 / nr=0 / decimate=0 / interlaced=0 / bluray_compat=0 / constrained_intra=0 / bframes=7 / b_pyramid=2 / b_adapt=2 / b_bias=0 / direct=3 / weightb=1 / open_gop=0 / weightp=2 / keyint=250 / keyint_min=23 / scenecut=40 / intra_refresh=0 / rc=2pass / mbtree=0 / bitrate=4000 / ratetol=1.0 / qcomp=0.80 / qpmin=10 / qpmax=30 / qpstep=4 / cplxblur=20.0 / qblur=0.5 / ip_ratio=1.40 / pb_ratio=1.30 / aq=1:1.00Language : JapaneseDefault : YesForced : No

Audio #1ID : 2Format : AC-3Format/Info : Audio Coding 3Mode extension : CM (complete main)Codec ID : A_AC3Duration : 1h 33mnBit rate mode : ConstantBit rate : 448 KbpsChannel(s) : 6 channelsChannel positions : Front: L C R, Side: L R, LFESampling rate : 48.0 KHzBit depth : 16 bitsCompression mode : LossyStream size : 301 MiB (9%)Title : loster01 & EmeriLanguage : RussianDefault : YesForced : No

Audio #2ID : 3Format : AC-3Format/Info : Audio Coding 3Mode extension : CM (complete main)Codec ID : A_AC3Duration : 1h 33mnBit rate mode : ConstantBit rate : 448 KbpsChannel(s) : 6 channelsChannel positions : Front: L C R, Side: L R, LFESampling rate : 48.0 KHzBit depth : 16 bitsCompression mode : LossyStream size : 301 MiB (9%)Language : JapaneseDefault : NoForced : No

TextID : 4Format : ASSCodec ID : S_TEXT/ASSCodec ID/Info : Advanced Sub Station AlphaCompression mode : LosslessTitle : VaLLaRLanguage : RussianDefault : NoForced : No

Menu00:00:00.000 : en:Prologue / en:Opening / en:Main_Dialouge01:29:26.044 : en:Ending / en:Preview


Трекер:  [ 05-Авг-2012 23:23 ]

  

Скачать .torrent

Размер .torrent файла 16 KB


Размер: 3.21 GB
Хэш (hash) релиза: a8b183432c300107f2eebff447d694b7394ffee0
Подписка на обновления:

Торренты, похожие на Блич скачать торрент

Форум Название Автор Размер S L Добавлен
Аниме | HD Rips ·· Блич (фильм четвёртый): Врата Ада / Gekijouban Bleach: Jigoku-hen / Bleach: The Hell Verse (Абэ Нориюки) [Movie] [без хардсаба] [RUS(ext), JAP +SUB] [2010, Приключения, фэнтези, сёнэн, BDRip] [720p] Galfimbul 36269895073.38 GB 0 0 1499608957

17:02

9-Июл-17

Аниме | HD Rips ·· Блич (фильм четвёртый): Врата Ада / Gekijouban Bleach: Jigoku-hen / Bleach: The Hell Verse (Абэ Нориюки) [Movie] [без хардсаба] [RUS(ext), JAP +SUB] [2010, Приключения, фэнтези, сёнэн, BDRemux] [1080p] Galfimbul 1589951667114.81 GB 0 0 1499608952

17:02

9-Июл-17

Аниме | HD Rips ·· Блич / Bleach [TV] [6 из 366] [Без хардсаба] [RUS(ext), JAP+SUB] [2004, приключения, комедия, фэнтези, сёнэн, BDRip] [720p] Galfimbul 28788555822.68 GB 0 0 1482087805

22:03

18-Дек-16

Аниме | HD Rips ·· Блич / Bleach [TV] [2 из 366] [Без хардсаба] [RUS(ext), JAP+SUB] [2004, приключения, комедия, фэнтези, сёнэн, BDRip] [720p] Galfimbul 960304216916 MB 0 0 1480280892

00:08

28-Ноя-16

Аниме | HD Rips ·· Блич / Bleach [TV] [1 из 366] [Без хардсаба] [RUS(int), JAP+SUB] [2004, приключения, комедия, фэнтези, сёнэн, BDRip] [720p] Galfimbul 413635365394 MB 0 0 1474192728

12:58

18-Сен-16

Аниме | HD Rips ·· Блич (фильм четвёртый): Врата Ада / Bleach: The Hell Verse (Абэ Нориюки) [Movie] [без хардсаба] [RUS(ext), JAP +SUB] [2010, Приключения, фэнтези, сёнэн, BDRemux] [1080p] Galfimbul 1598967335814.89 GB 0 0 1465913671

17:14

14-Июн-16

Аниме | HD Rips ·· Блич (фильм четвёртый): Врата Ада / Bleach: The Hell Verse (Абэ Нориюки) [Movie] [без хардсаба] [RUS(ext), JAP +SUB] [2010, Приключения, фэнтези, сёнэн, BDRip] [720p] Galfimbul 37171461943.46 GB 0 0 1465908566

15:49

14-Июн-16

Аниме | Rips ·· Блич / Bleach [TV] [110-131 из 366] [Без хардсаба] [RUS(ext), JAP+SUB] [2004 г., Приключения, комедия, фэнтези, сёнэн, DVDRemux] Galfimbul 3839963332135.76 GB 1 1 1462881425

14:57

10-Май-16

Аниме | Rips ·· Блич / Bleach [TV] [1-71 из 366] [Без хардсаба] [RUS(ext),ENG(ext),JAP+SUB] [2004 г., Сенен, Экщн, Комедия, DVDRemux] Galfimbul 149054749119138.82 GB 1 1 1462025081

17:04

30-Апр-16

Аниме | Rips ·· Блич / Bleach [TV] [1-71 из 366] [Без хардсаба] [RUS(ext),ENG(ext),JAP+SUB] [2004 г., Сенен, Экщн, Комедия, DVDRemux] Galfimbul 126504016623117.82 GB 1 1 1461585208

14:53

25-Апр-16

Аниме | Rips ·· Блич / Bleach [TV] [1-56 из 366] [Без хардсаба] [RUS(ext),ENG(ext),JAP+SUB] [2004 г., Сенен, Экщн, Комедия, DVDRemux] Galfimbul 9506719541488.54 GB 1 1 1461314753

11:45

22-Апр-16

Аниме | Rips ·· Блич / Bleach [TV] [1-45 из 366] [Без хардсаба] [RUS(ext),ENG(ext),JAP+SUB] [2004 г., Сенен, Экщн, Комедия, DVDRemux] Galfimbul 7565119788170.46 GB 1 1 1461034411

05:53

19-Апр-16

Аниме | HD Rips ·· Блич (фильм третий): Исчезая в темноту, я звала тебя / Bleach: Fade to Black - I Call Your Name [Movie] [Без хардсаба] [JAP, RUS(ext), RUS(ext), SUB] [2008 г., сёнэн, фэнтези, приключения, боевик, BDRip] [1080p] Galfimbul 1200731083211.18 GB 0 0 1429910398

00:19

25-Апр-15

Блич | Bleach ·· Блич (фильм первый) Воспоминания ни о ком / Bleach the Movie: Memories of Nobody [Movie] [Без хардсаба] [RUS(int), JAP+SUB] [2006 г., приключения, фэнтези, BDRip] [HWP] Polarnik 13223138891.23 GB 0 0 1391944984

14:23

9-Фев-14

Манга ·· Kubo Tite - Блич / Bleach [manga] [1-563 + 8 specials] [2001 г., сёнэн, драма, комедия] [incomplete] Galfimbul 29159314412.72 GB 0 0 1388183414

01:30

28-Дек-13

Манга ·· Kubo Tite - Блич / Bleach [manga] [1-560 + 8 specials] [2001 г., сёнэн, драма, комедия] [incomplete] Polarnik 29041588682.7 GB 0 0 1386253856

17:30

5-Дек-13

Блич | Bleach ·· Блич / Bleach (Абэ Нориюки) [1-143 из 366] [TV][без хардсаба][RUS(int),JAP+SUB][2004, приключения, комедия, фэнтези, сёнэн, DVDRip] Galfimbul 4355493746640.56 GB 0 0 1385929934

23:32

1-Дек-13

Блич | Bleach ·· Блич: Неистовство Заточённого Меча / Bleach: The Sealed Sword Frenzy [OVA] [1 из 1] [Без хардсаба] [RUS(int), JAP] [2006 г., приключения, фэнтези, DVDRip] Polarnik 371084132354 MB 0 0 1379919139

09:52

23-Сен-13

Аниме | DVD ·· Блич Фильм 4: Врата Ада / Bleach Movie 4: The Hell Verse / Gekijouban Bleach: Jigoku-hen [Movie] [RUS, JAP, SUB] [2010 г., приключения, комедия, фэнтези, сёнэн] [1 x DVD9] Polarnik 74272051206.92 GB 0 0 1361796485

15:48

25-Фев-13

Блич | Bleach ·· Блич Фильм 4: Врата Ада / Bleach Movie 4: The Hell Verse [Movie] [Без хардсаба] [JAP, RUS(ext), SUB] [2010 г., приключения, комедия, фэнтези, сёнэн, BDRip] [1080p] Galfimbul 39725773173.7 GB 4 0 1354615260

13:01

4-Дек-12

Еще никто не оставлял запись к записи скачать торрент Блич . Будь первым!

!Обратная связь